iTunes

1+1

iTunes

мы

iTunes

1

iTunes

Чернобыль

iTunes

Ральф против интернета

Лицензия

ПШазам

Лицензия

Игра престолов

Лицензия

30
pack

ВАЖНО

!!Акция!!

Alien_RageХит недели

RePack

Resident Evil 21

ИГРА 18+

pack

RePack

Metro:Exodus

!!Акция!!

Alien_Rage

RePack

fifa19

RePack

Assassins Creed: Odyssey

RePack

NEED FOR SPEED™ PAYBACK

3 сезон

9 сезон

Бесстыжие 9 сезон

Все сериалы

все сериалы на PB.wtf

RePack

FAR CRY 5
Ребята, катастрофически не хватает 7730р. для оплаты серверов за ИЮЛЬ (всвязи с блокировками трафик упал в 3 раза), 1-2р., выручайте.
  

Рецепт колдуньи (Татьяна Воронецкая) [2003 г., мелодрама, DVDRip] piratbit.cc

Рецепт колдуньи через торрент piratbit.cc

Качают: 1 [ 0 KB/s ]
Размер: 1.45 GB | Добавлен: 6 лет 7 мес. назад | Торрент скачан:62 раза
Скачать  

12-01-2013 14:09 Рецепт колдуньи Скачать торрент  

Рецепт колдуньи

Год выпуска: 2003
Страна: Россия
Жанр: мелодрама
Продолжительность: 01:32:10
Перевод: Не требуется

Режиссер: Татьяна Воронецкая
Продюссер: Татьяна Воронецкая
Сценарий: Валентин Черных

Мировой рейтинг IMDB 3.30 (8)


В ролях: Амалия Мордвинова, Наташа Королёва, Виктор Раков, Александр Лазарев мл., Татьяна Васильева, Елена Караджова, Дарья Шаталина, Игорь Орщуляк, Григорий Данцигер, Евгений Карельских

Описание: Несмотря на обилие «рецептов счастья», каждый составляет его для себя сам, из подручных средств и имеющихся ингредиентов. У бывшей балерины Полины Горчаковой есть любящий муж-бизнесмен, семейный комфорт и достаток в доме. Однако для полного счастья ей не хватает главного — ребенка.На что готова пойти Полина, подталкиваемая деловой и напористой подругой Люсей? На связь по расчету с профессиональным обольстителем-стриптизером? На увлечение таинственным красавцем и своим тайным поклонником Богданом? На визит к колдунье за чудодейственным рецептом?

Качество: DVDRip
Формат: AVI
Видео кодек: XviD
Аудио кодек: AC3
Видео: 720x480 (1.50:1), 25 fps, XviD build 50 ~1864 kbps avg, 0.22 bit/pixel
Аудио#1: 48 kHz, AC3 Dolby Digital, 2/0 (L,R) ch, ~384 kbps
скриншот   скриншот   скриншот   скриншот   скриншот   скриншот  

Общее
Полное имя : F:ЗакачкиRecept.Kolduni.2004.DVDRip.avi
Формат : AVI
Формат/Информация : Audio Video Interleave
Размер файла : 1,45 Гбайт
Продолжительность : 1 ч. 32 м.
Общий поток : 2258 Кбит/сек
Программа кодирования : VirtualDubMod 1.5.10.3 | www.virtualdub-fr.org || (build 2550/release)
Библиотека кодирования : VirtualDubMod build 2550/release

Видео
Идентификатор : 0
Формат : MPEG-4 Visual
Профиль формата : Advanced Simple@L5
Параметр BVOP формата : 2
Параметр QPel формата : Нет
Параметр GMC формата : Без точки перехода
Параметр матрицы формата : Default (H.263)
Идентификатор кодека : XVID
Идентификатор кодека/Подсказка : XviD
Продолжительность : 1 ч. 32 м.
Битрейт : 1865 Кбит/сек
Ширина : 720 пикселей
Высота : 480 пикселей
Соотношение сторон : 3:2
Частота кадров : 25,000 кадров/сек
Стандарт вещания : NTSC
Цветовое пространство : YUV
Субдискретизация насыщенности : 4:2:0
Битовая глубина : 8 бит
Тип развёртки : Прогрессивная
Метод сжатия : С потерями
Бит/(Пиксели*Кадры) : 0.216
Размер потока : 1,20 Гбайт (83%)
Библиотека кодирования : XviD 1.2.1 (UTC 2008-12-04)

Аудио
Идентификатор : 1
Формат : AC-3
Формат/Информация : Audio Coding 3
Расширение режима : CM (complete main)
Идентификатор кодека : 2000
Продолжительность : 1 ч. 32 м.
Вид битрейта : Постоянный
Битрейт : 384 Кбит/сек
Каналы : 2 канала
Расположение каналов : Front: L R
Частота : 48,0 КГц
Битовая глубина : 16 бит
Метод сжатия : С потерями
Размер потока : 253 Мбайт (17%)
Выравнивание : Разделение по промежуткам
Продолжительность промежутка : 40 мс. (1,00 видеокадр)
Время предзагрузки промежутка : 500 мс.


Рецепт колдуньи скачать торрент


piratbit.cc



Скачать Рецепт колдуньи через торрент http://i51.fastpic.ru/big/2013/0112/d0/c6d951d9710b489d327dae075e4cc6d0.jpg Скачать фильм Рецепт колдуньи через торрент бесплантно в хорошем качестве Описание: Несмотря на обилие «рецептов счастья», каждый составляет его для себя сам, из подручных средств и имеющихся ингредиентов. У ... 5 10 1
Info! Золотая раздача, скачанное не засчитывается.
Торрент: Зарегистрирован [2013-01-12 14:09] · скачан: 62 раз
Статус: √ проверено
Размер: 1.45 GB
Как cкачать? Как скачать Рецепт колдуньи через торрент | qTorrent


>> Регистрируемся здесь <<






Отзывы и комментарии о схеме читаем и пишем здесь: ---> Отзывы и комментарии о схеме

Новые благодарочки в телеграм довольных пользователей:
скриншот   скриншот   скриншот   скриншот   скриншот
    Дорогой пользователь! Огромная просьба, поблагодарите релизера, оцените раздачу и оставьте свои комментарий, если Вы скачали Рецепт колдуньи через торрент бесплатно! Внесите свою лепту в развитие PiratBit!
    Комментировать посты могут только пользователи прошедшие не сложную регистрацию
    Показать сообщения:    

    Рецепт колдуньи через торрент
    Скачать бесплатно Рецепт колдуньи
    Рецепт колдуньи скачать торрент
    Рецепт колдуньи смотреть онлайн
    Cкачать фильм Рецепт колдуньи бесплатно
    Рецепт колдуньи скачать торрент в хорошем качестве
    Рецепт колдуньи смотреть онлайн бесплатно в хорошем качестве


    Вы не можете начинать темы
    Вы не можете отвечать на сообщения
    Вы не можете редактировать свои сообщения
    Вы не можете удалять свои сообщения
    Вы не можете голосовать в опросах
    Вы не можете прикреплять файлы к сообщениям
    Вы можете скачивать файлы