Лицензия

30

MVO

Как приручить дракона 3

11 сезон

1

1 сезон

гринч

iTunes

Стекло

iTunes

Клаустрофобы

8 сезон

Игра престолов

iTunes

Ральф против интернета Хит недели

ИГРА 18+

pack

ВАЖНО

!!Акция!!

Alien_RageХит недели

RePack

Resident Evil 21
pack

RePack

Metro:Exodus

!!Акция!!

Alien_Rage

RePack

fifa19

RePack

Assassins Creed: Odyssey

RePack

NEED FOR SPEED™ PAYBACK

3 сезон

9 сезон

Бесстыжие 9 сезон

Все сериалы

все сериалы на PB.wtf

RePack

FAR CRY 5
Ребята, критически не успеваем дособрать 3200р. для оплаты серверов за Март (всвязи с блокировками трафик упал в 3 раза), 1-2р., выручайте.
  

Шекспиру и не снилось (Алексей Зернов) [2007 г., мелодрама, комедия, DVDRip] piratbit.cc

Шекспиру и не снилось через торрент piratbit.cc

Размер: 1.36 GB | Добавлен: 6 лет назад | Торрент скачан:12 раз
Скачать  

15-01-2013 12:58 Шекспиру и не снилось Скачать торрент  

Шекспиру и не снилосьГод выпуска: 2007
Страна: Россия
Жанр: мелодрама, комедия
Продолжительность: 01:44:29
Перевод: Не требуется

Режиссер: Алексей Зернов
Продюссер: Сергей Жигунов
Сценарий: Алексей Зернов


Мировой рейтинг IMDB 4.40 (40)


В ролях:

Наталия Фиссон, Татьяна Кравченко, Николай Кичев, Ольга Прокофьева, Гарик Бульдог Харламов, Игорь Сладкевич, Борис Смолкин, Юрий Стоянов, Анастасия Заворотнюк, Сергей Жигунов, Андрей Мокеев, Юрий Воробьев

Описание:

В уездном городке уже давно ждут труппу известных актеров. Однако приехавшие знаменитости ведут себя странно и уже в ходе подготовки спектакля у директора театра закрадываются сомнения в «подлинности» приехавших...В стане «актеров» свои неприятности — единственная «Прима», ради которой на спектакль приезжает губернатор города, неожиданно влюбившись, сбегает с юным гусаром в табор к цыганам. Вечером спектакль, билеты проданы, а играть некому. Гастролеры срочно вынуждены искать «актрисе» замену...

Качество: DVDRip
Формат: AVI
Видео кодек: XviD
Аудио кодек: AC3
Видео: : Xvid ,608x320, 25fps, 1 410 Kbps
Аудио#1: Dolby AC3, 48000Hz, 6ch ,448kbps

General
Complete name : F:РаздачаШекспиру и не снилось.avi
Format : AVI
Format/Info : Audio Video Interleave
File size : 1.36 GiB
Duration : 1h 44mn
Overall bit rate : 1 868 Kbps
Writing application : VirtualDubMod 1.5.10.2 (build 2540/release)
Writing library : VirtualDubMod build 2540/release

Video
ID : 0
Format : MPEG-4 Visual
Format profile : Advanced Simple@L5
Format settings, BVOP : 2
Format settings, QPel : No
Format settings, GMC : No warppoints
Format settings, Matrix : Default (MPEG)
Muxing mode : Packed bitstream
Codec ID : XVID
Codec ID/Hint : XviD
Duration : 1h 44mn
Bit rate : 1 410 Kbps
Width : 608 pixels
Height : 320 pixels
Display aspect ratio : 1.900
Frame rate : 25.000 fps
Color space : YUV
Chroma subsampling : 4:2:0
Bit depth : 8 bits
Scan type : Progressive
Compression mode : Lossy
Bits/(Pixel*Frame) : 0.290
Stream size : 1.03 GiB (76%)
Writing library : XviD 1.0.3 (UTC 2004-12-20)

Audio
ID : 1
Format : AC-3
Format/Info : Audio Coding 3
Mode extension : CM (complete main)
Format settings, Endianness : Big
Codec ID : 2000
Duration : 1h 44mn
Bit rate mode : Constant
Bit rate : 448 Kbps
Channel(s) : 6 channels
Channel positions : Front: L C R, Side: L R, LFE
Sampling rate : 48.0 KHz
Bit depth : 16 bits
Compression mode : Lossy
Stream size : 335 MiB (24%)
Alignment : Split accross interleaves
Interleave, duration : 40 ms (1.00 video frame)
Interleave, preload duration : 500 ms


Шекспиру и не снилось скачать торрент


скриншот  скриншот  скриншот  piratbit.cc



Скачать Шекспиру и не снилось через торрент http://i031.radikal.ru/1301/8f/864897de8e5f.jpg Скачать фильм Шекспиру и не снилось через торрент бесплантно в хорошем качестве Описание: В уездном городке уже давно ждут труппу известных актеров. Однако приехавшие знаменитости ведут себя странно и уже в ходе ... 10 10 2
Info! Золотая раздача, скачанное не засчитывается.
Торрент: Зарегистрирован [2013-03-25 16:40] · скачан: 12 раз
Статус: √ проверено
Размер: 1.36 GB
Как cкачать? Как скачать Шекспиру и не снилось через торрент | qTorrent



Последний раз редактировалось: Шал (2013-01-15 14:28), всего редактировалось 1 раз
Раскрываю секрет как замутить 6000р. без напряга и вложений

Чтобы получить бонус нужно перейти по --> ссылке и зарегистрироваться
Получаем бесплатный бонус 3000р от казино, ставим все на красное
С вероятностью 50% вы выигрываете
Выводим деньги, идем за айфоном!!!
Если не получилось регаемся еще раз и пробуем еще раз, Автоматы настроены так что каждый второй выигрывает!!!

Не ну, а чего попробовать то можно, Вы же ничего не теряете!!!

15-01-2013 13:03 Шекспиру и не снилось Скачать торрент  

Хорошая комедия для семейного просмотра.piratbit.cc



15-01-2013 13:48 Шекспиру и не снилось Скачать торрент  

Шал
Укажи битрейт видеоpiratbit.cc



    Дорогой пользователь! Огромная просьба, поблагодарите релизера, оцените раздачу и оставьте свои комментарий, если Вы скачали Шекспиру и не снилось через торрент бесплатно! Внесите свою лепту в развитие PiratBit!
    Комментировать посты могут только пользователи прошедшие не сложную регистрацию
    Показать сообщения:    

    Шекспиру и не снилось через торрент
    Скачать бесплатно Шекспиру и не снилось
    Шекспиру и не снилось скачать торрент
    Шекспиру и не снилось смотреть онлайн
    Cкачать фильм Шекспиру и не снилось бесплатно
    Шекспиру и не снилось скачать торрент в хорошем качестве
    Шекспиру и не снилось смотреть онлайн бесплатно в хорошем качестве


    Вы не можете начинать темы
    Вы не можете отвечать на сообщения
    Вы не можете редактировать свои сообщения
    Вы не можете удалять свои сообщения
    Вы не можете голосовать в опросах
    Вы не можете прикреплять файлы к сообщениям
    Вы можете скачивать файлы