Лицензия

30

iTunes

мы

iTunes

1

1 сезон

Чернобыль

1 сезон

Ральф против интернета

MVO

Покемон. Детектив Пикачу

8 сезон

Игра престолов

iTunes

1+1

ИГРА 18+

pack

ВАЖНО

!!Акция!!

Alien_RageХит недели

RePack

Resident Evil 21
pack

RePack

Metro:Exodus

!!Акция!!

Alien_Rage

RePack

fifa19

RePack

Assassins Creed: Odyssey

RePack

NEED FOR SPEED™ PAYBACK

3 сезон

9 сезон

Бесстыжие 9 сезон

Все сериалы

все сериалы на PB.wtf

RePack

FAR CRY 5
Ребята, катастрофически не хватает 2730р. для оплаты серверов за МАЙ (всвязи с блокировками трафик упал в 3 раза), 1-2р., выручайте.
  

Золото Кольджата (Дмитрий Орлов) [2007 г., боевик, приключения, DVDRip] piratbit.cc

Золото Кольджата через торрент piratbit.cc

Размер: 1.37 GB | Добавлен: 6 лет 5 мес. назад | Торрент скачан:42 раза
Скачать  

16-01-2013 18:59 Золото Кольджата Скачать торрент  

Золото КольджатаГод выпуска: 2007
Страна: Россия
Жанр: боевик, приключения
Продолжительность: 01:14:23
Перевод: Не требуется

Режиссер: Дмитрий Орлов
Продюссер: Михаил Москалев, Владимир Филиппов
Сценарий: - Дмитрий Орлов, Михаил Москалев

Мировой рейтинг IMDB


В ролях:

Никита Салопин, Михаил Богдасаров, Наталия Винтилова, Александр Феклистов, Максим Шпаковский, Олег Корнишин, Ольга Лукашевич, Виктор Неврузов

Описание:

На границе великой империи казачий заслон охраняет горный перевал, через который в Сибирь проникают бандитские отряды Зарифа. Уничтожить банду, приносящую неисчислимые бедствия окрестным селам, дело чести для командира заслона — есаула Токарева. Лошади, карабины, горячие револьверные стволы, погони и эхо отчаянных перестрелок в горных ущельях. Любовь и смерть, золото и предательство. На кону невиданные сокровища и сердце девушки. Кто сорвет банк — казачий офицер или коварный хунхуз?

Качество: DVDRip
Формат: AVI
Видео кодек: XviD
Аудио кодек: AC3
Видео: Xvid, 720x400, 25fps,2 429 Kbps.
Аудио#1: Dolby, AC3, 48000Hz, stereo, 192kbps.

General

Format : AVI
Format/Info : Audio Video Interleave
File size : 1.37 GiB
Duration : 1h 14mn
Overall bit rate : 2 628 Kbps
Writing application : VirtualDubMod 1.5.4.1 (build 2178/release)
Writing library : VirtualDubMod build 2178/release

Video
ID : 0
Format : MPEG-4 Visual
Format profile : Advanced Simple@L5
Format settings, BVOP : No
Format settings, QPel : No
Format settings, GMC : No warppoints
Format settings, Matrix : Custom
Codec ID : XVID
Codec ID/Hint : XviD
Duration : 1h 14mn
Bit rate : 2 429 Kbps
Width : 720 pixels
Height : 400 pixels
Display aspect ratio : 16:9
Frame rate : 25.000 fps
Color space : YUV
Chroma subsampling : 4:2:0
Bit depth : 8 bits
Scan type : Progressive
Compression mode : Lossy
Bits/(Pixel*Frame) : 0.337
Stream size : 1.26 GiB (92%)
Writing library : XviD 1.2.0.dev47 (UTC 2006-11-01)

Audio
ID : 1
Format : AC-3
Format/Info : Audio Coding 3
Mode extension : CM (complete main)
Format settings, Endianness : Big
Codec ID : 2000
Duration : 1h 14mn
Bit rate mode : Constant
Bit rate : 192 Kbps
Channel(s) : 2 channels
Channel positions : Front: L R
Sampling rate : 48.0 KHz
Bit depth : 16 bits
Compression mode : Lossy
Stream size : 102 MiB (7%)
Alignment : Split accross interleaves
Interleave, duration : 96 ms (2.40 video frames)
Interleave, preload duration : 96 ms


Золото Кольджата скачать торрент





скриншот  скриншот  скриншот  


piratbit.cc



Скачать Золото Кольджата через торрент http://s61.radikal.ru/i174/1301/c8/17d37a24588d.jpg Скачать фильм Золото Кольджата через торрент бесплантно в хорошем качестве Описание: На границе великой империи казачий заслон охраняет горный перевал, через который в Сибирь проникают бандитские отряды Зарифа. ... 10 10 1
Info! Золотая раздача, скачанное не засчитывается.
Торрент: Зарегистрирован [2013-01-16 18:59] · скачан: 42 раз
Статус: √ проверено
Размер: 1.37 GB
Как cкачать? Как скачать Золото Кольджата через торрент | qTorrent


>> Регистрируемся здесь <<






Отзывы и комментарии о схеме читаем и пишем здесь: ---> Отзывы и комментарии о схеме

Новые благодарочки в телеграм довольных пользователей:
скриншот   скриншот   скриншот   скриншот   скриншот
    Дорогой пользователь! Огромная просьба, поблагодарите релизера, оцените раздачу и оставьте свои комментарий, если Вы скачали Золото Кольджата через торрент бесплатно! Внесите свою лепту в развитие PiratBit!
    Комментировать посты могут только пользователи прошедшие не сложную регистрацию
    Показать сообщения:    

    Золото Кольджата через торрент
    Скачать бесплатно Золото Кольджата
    Золото Кольджата скачать торрент
    Золото Кольджата смотреть онлайн
    Cкачать фильм Золото Кольджата бесплатно
    Золото Кольджата скачать торрент в хорошем качестве
    Золото Кольджата смотреть онлайн бесплатно в хорошем качестве


    Вы не можете начинать темы
    Вы не можете отвечать на сообщения
    Вы не можете редактировать свои сообщения
    Вы не можете удалять свои сообщения
    Вы не можете голосовать в опросах
    Вы не можете прикреплять файлы к сообщениям
    Вы можете скачивать файлы