iTunes

1+1

iTunes

мы

iTunes

1

iTunes

Чернобыль

iTunes

Ральф против интернета

Лицензия

ПШазам

Лицензия

Игра престолов

Лицензия

30
pack

ВАЖНО

!!Акция!!

Alien_RageХит недели

RePack

Resident Evil 21

ИГРА 18+

pack

RePack

Metro:Exodus

!!Акция!!

Alien_Rage

RePack

fifa19

RePack

Assassins Creed: Odyssey

RePack

NEED FOR SPEED™ PAYBACK

3 сезон

9 сезон

Бесстыжие 9 сезон

Все сериалы

все сериалы на PB.wtf

RePack

FAR CRY 5
Ребята, катастрофически не хватает 7730р. для оплаты серверов за АВГУСТ (всвязи с блокировками трафик упал в 3 раза), 1-2р., выручайте.
  

Смоки и Бандит / Smokey and the Bandit (Хэл Нидэм / Hal Needham) [1977 г., боевик, мелодрама, комедия, криминал, BDRip-AVC] AVO (Либергал) + AVO (Володарский) + AVO (Михалёв) piratbit.cc

Смоки и Бандит через торрент piratbit.cc

Размер: 2.67 GB | Добавлен: 6 лет 7 мес. назад | Торрент скачан:30 раз
Скачать  

22-01-2013 21:35 Смоки и Бандит Скачать торрент  

Смоки и Бандит / Smokey and the Bandit

Год выпуска: 1977
Страна: США
Жанр: боевик, мелодрама, комедия, криминал
Продолжительность: 01:35:49
Перевод: авторский (Г.Либергал)
авторский (Л.Володарский)
авторский (А.Михалёв)

Режиссер: Хэл Нидэм
Продюссер: Морт Энгелберг, Жуль Леви, Роберт Л. Леви
Сценарий: Джеймс Ли Баррет, Чарльз Шайер, Алан Мэндел

Мировой рейтинг IMDB 6.70 (21 101)


В ролях: Берт Рейнолдс, Салли Филд, Джерри Рид, Майк Генри, Пол Уильямс, Пэт МакКормик, Элфи Уайз, Джордж Рейнольдс, Макон МакКалман, Линда МакКлюр

Описание: Парочка водителей, Бандит и Снеговик, берутся перевезти грузовик контрабандного пива из Тексарканы в Атланту за 48 часов. Схема проста: пока Бандит отвлекает полицейских, Снеговик спокойно на грузовике едет за ним. В то же время шериф Бьюфорд Джастис решает во что бы то не стало поймать Бандита, так как невеста его сына сбежала со свадьбы и села к Бандиту в машину...

Качество: BDRip-AVC

Формат: MKV

Видео кодек: H.264

Аудио кодек: AC3

Видео: 1280х720 (16:9), 23,976 fps, x264(Baseline@L3.1), ~ 3033 kbps

Аудио#1: AC3, 16bit, 48kHz, 2ch (L,R), 320kbps (Г.Либергал)

Аудио#2: AC3, 16bit, 48kHz, 2ch (L,R), 320kbps (Л.Володарский)

Аудио#3: AC3, 16bit, 48kHz, 2ch (L,R), 320kbps (А.Михалёв)
Полное имя : D:Smokey and the Bandit_ BDRip.mkv
Формат : Matroska
Версия формата : Version 2
Размер файла : 2,67 Гбайт
Продолжительность : 1 ч. 35 м.
Общий поток : 3996 Кбит/сек
Дата кодирования : UTC 2013-01-22 20:09:22
Программа кодирования : mkvmerge v5.7.0 ('The Whirlwind') built on Jul 8 2012 20:08:51
Библиотека кодирования : libebml v1.2.3 + libmatroska v1.3.0

Видео
Идентификатор : 1
Формат : AVC
Формат/Информация : Advanced Video Codec
Профиль формата : Baseline@L3.1
Параметр CABAC формата : Нет
Параметр ReFrames формата : 1 кадр
Режим смешивания : Header stripping
Идентификатор кодека : V_MPEG4/ISO/AVC
Продолжительность : 1 ч. 35 м.
Битрейт : 3033 Кбит/сек
Ширина : 1280 пикселей
Высота : 720 пикселей
Соотношение сторон : 16:9
Режим частоты кадров : Постоянный
Частота кадров : 23,976 кадра/сек
Цветовое пространство : YUV
Субдискретизация насыщенности : 4:2:0
Битовая глубина : 8 бит
Тип развёртки : Прогрессивная
Бит/(Пиксели*Кадры) : 0.137
Размер потока : 1,98 Гбайт (74%)
Библиотека кодирования : x264 core 112
Default : Да
Forced : Нет

Аудио #1
Идентификатор : 2
Формат : AC-3
Формат/Информация : Audio Coding 3
Расширение режима : CM (complete main)
Параметр Endianness формата : Big
Режим смешивания : Header stripping
Идентификатор кодека : A_AC3
Продолжительность : 1 ч. 35 м.
Вид битрейта : Постоянный
Битрейт : 320 Кбит/сек
Каналы : 2 канала
Расположение каналов : Front: L R
Частота : 48,0 КГц
Битовая глубина : 16 бит
Метод сжатия : С потерями
Размер потока : 219 Мбайт (8%)
Default : Да
Forced : Нет

Аудио #2
Идентификатор : 3
Формат : AC-3
Формат/Информация : Audio Coding 3
Расширение режима : CM (complete main)
Параметр Endianness формата : Big
Режим смешивания : Header stripping
Идентификатор кодека : A_AC3
Продолжительность : 1 ч. 35 м.
Вид битрейта : Постоянный
Битрейт : 320 Кбит/сек
Каналы : 2 канала
Расположение каналов : Front: L R
Частота : 48,0 КГц
Битовая глубина : 16 бит
Метод сжатия : С потерями
Размер потока : 219 Мбайт (8%)
Default : Нет
Forced : Нет

Аудио #3
Идентификатор : 4
Формат : AC-3
Формат/Информация : Audio Coding 3
Расширение режима : CM (complete main)
Параметр Endianness формата : Big
Режим смешивания : Header stripping
Идентификатор кодека : A_AC3
Продолжительность : 1 ч. 35 м.
Вид битрейта : Постоянный
Битрейт : 320 Кбит/сек
Каналы : 2 канала
Расположение каналов : Front: L R
Частота : 48,0 КГц
Битовая глубина : 16 бит
Метод сжатия : С потерями
Размер потока : 219 Мбайт (8%)
Default : Нет
Forced : Нет

Смоки и Бандит скачать торрент


piratbit.cc



Скачать Смоки и Бандит через торрент http://pic.kartinco.top/images/1/dzauc65oqp.jpg Скачать фильм Смоки и Бандит через торрент бесплантно в хорошем качестве Описание: Парочка водителей, Бандит и Снеговик, берутся перевезти грузовик контрабандного пива из Тексарканы в Атланту за 48 часов. Схема ... 10 10 2
Info! Золотая раздача, скачанное не засчитывается.
Торрент: Зарегистрирован [2013-01-22 21:35] · скачан: 30 раз
Статус: √ проверено
Размер: 2.67 GB
Как cкачать? Как скачать Смоки и Бандит через торрент | qTorrent

% Раздел Тема Автор DL S | L
Фильмы с авторской озвучкой [ 1.72 GB ] Смоки и Бандит / Smokey and the Bandit [1977 BDRip] 3x [AVO] killermax2013 Скачать
1 | 0
Фильмы до 2000 г. [ 1.62 GB ] Смоки и Бандит / Smokey and the Bandit [1977 HDRip] feldeger Скачать
1 | 0


>> Регистрируемся здесь <<






Отзывы и комментарии о схеме читаем и пишем здесь: ---> Отзывы и комментарии о схеме

Новые благодарочки в телеграм довольных пользователей:
скриншот   скриншот   скриншот   скриншот   скриншот

22-01-2013 23:02 Смоки и Бандит Скачать торрент  

Начну раздавать примерно в 11:00 по мск. Временные неполадки с интернетом.piratbit.cc



23-01-2013 09:17 Смоки и Бандит Скачать торрент  

Обожаю этот фильм!
Автору респект piratbit.cc



    Дорогой пользователь! Огромная просьба, поблагодарите релизера, оцените раздачу и оставьте свои комментарий, если Вы скачали Смоки и Бандит через торрент бесплатно! Внесите свою лепту в развитие PiratBit!
    Комментировать посты могут только пользователи прошедшие не сложную регистрацию
    Показать сообщения:    

    Смоки и Бандит через торрент
    Скачать бесплатно Смоки и Бандит
    Смоки и Бандит скачать торрент
    Смоки и Бандит смотреть онлайн
    Cкачать фильм Смоки и Бандит бесплатно
    Смоки и Бандит скачать торрент в хорошем качестве
    Смоки и Бандит смотреть онлайн бесплатно в хорошем качестве


    Вы не можете начинать темы
    Вы не можете отвечать на сообщения
    Вы не можете редактировать свои сообщения
    Вы не можете удалять свои сообщения
    Вы не можете голосовать в опросах
    Вы не можете прикреплять файлы к сообщениям
    Вы можете скачивать файлы