Лицензия

30

iTunes

мы

iTunes

1

1 сезон

Чернобыль

iTunes

1+1

iTunes

Закатать в асфальт

8 сезон

Игра престолов

1 сезон

Ральф против интернета

ИГРА 18+

pack

ВАЖНО

!!Акция!!

Alien_RageХит недели

RePack

Resident Evil 21
pack

RePack

Metro:Exodus

!!Акция!!

Alien_Rage

RePack

fifa19

RePack

Assassins Creed: Odyssey

RePack

NEED FOR SPEED™ PAYBACK

3 сезон

9 сезон

Бесстыжие 9 сезон

Все сериалы

все сериалы на PB.wtf

RePack

FAR CRY 5
Ребята, катастрофически не хватает 2730р. для оплаты серверов за АПРЕЛЬ (всвязи с блокировками трафик упал в 3 раза), 1-2р., выручайте.
  

Нежный возраст (Сергей Соловьёв) [2000 г., Комедия/Драма, DVDRip] piratbit.cc

Нежный возраст через торрент piratbit.cc

Размер: 1.46 GB | Добавлен: 6 лет 2 мес. назад | Торрент скачан:73 раза
Скачать  

30-01-2013 20:41 Нежный возраст Скачать торрент  

Нежный возраст

Год выпуска: 2000
Страна: Россия
Жанр: Драма/Комедия
Продолжительность: 01:50:43

Режиссер: Сергей Соловьёв
Оператор:Павел Лебешев
Продюссер: Никита Михалков,Леонид Верещагин
Сценарий: Дмитрий Соловьёв,Сергей Соловьёв
Музыка:Эрни Лолашвили,Борис Гребенщиков

В ролях: Дмитрий Соловьев, Елена Камаева, Андрей Панин, Кирилл Лавров, Валентин Гафт, Людмила Савельева, Сергей Гармаш, Николай Чиндяйкин, Томаш Бялковский, Алексей Дагаев, Ольга Сидорова, Андрей Савостьянов

Описание: История, рассказанная в фильме — это история взросления одного конкретного человека в условиях новой рыночно—мафиозной общественной жизни, история его любви к дочери друзей его родителей, которая становится известной парижской топ-моделью, нежные и трогательные взаимоотношения с которой проходят через всю жизнь героя, от самого раннего детства до сегодняшних дней, спасают и формируют эту жизнь… История основана на реальных судьбах и фактах. В главной роли Ивана снялся сын режиссера — Дмитрий Соловьев, который уже взрослым рассказал отцу обо всем том, о чем рассказывает этот фильм.

Качество: DVDRip
Формат: AVI
Видео кодек: XviD
Аудио кодек: AC3
Видео: 1683kbps,672*512(4:3),25.000fps
Аудио#1: 192 kbps,48.0 kHz,2ch.16 bits,АС3









General
Complete name : C:UsersюзерVideosторентыNejniy.vozrast.2000_[torrents.ru].avi
Format : AVI
Format/Info : Audio Video Interleave
File size : 1.46 GiB
Duration : 1h 50mn
Overall bit rate : 1 884 Kbps
Movie name : Нежный возраст
Director : zim2001
Writing application : VirtualDubMod 1.5.10.2 (build 2540/release)
Copyright : torrents.ru

Video
ID : 0
Format : MPEG-4 Visual
Format profile : Advanced Simple@L5
Format settings, BVOP : 1
Format settings, QPel : No
Format settings, GMC : No warppoints
Format settings, Matrix : Custom
Codec ID : XVID
Codec ID/Hint : XviD
Duration : 1h 50mn
Bit rate : 1 683 Kbps
Width : 672 pixels
Height : 512 pixels
Display aspect ratio : 4:3
Frame rate : 25.000 fps
Color space : YUV
Chroma subsampling : 4:2:0
Bit depth : 8 bits
Scan type : Progressive
Compression mode : Lossy
Bits/(Pixel*Frame) : 0.196
Stream size : 1.30 GiB (89%)
Writing library : XviD 1.2.1 (UTC 2008-12-04)

Audio
ID : 1
Format : AC-3
Format/Info : Audio Coding 3
Mode extension : CM (complete main)
Format settings, Endianness : Big
Codec ID : 2000
Duration : 1h 50mn
Bit rate mode : Constant
Bit rate : 192 Kbps
Channel(s) : 2 channels
Channel positions : Front: L R
Sampling rate : 48.0 KHz
Bit depth : 16 bits
Compression mode : Lossy
Stream size : 152 MiB (10%)
Alignment : Split accross interleaves
Interleave, duration : 40 ms (1.00 video frame)
Interleave, preload duration : 500 ms

piratbit.cc



Скачать Нежный возраст через торрент http://pic.kartinco.top/images/1/cc9g5jlgl3.png Скачать фильм Нежный возраст через торрент бесплантно в хорошем качестве Описание: История, рассказанная в фильме — это история взросления одного конкретного человека в условиях новой рыночно—мафиозной ... 10 10 2
Info! Золотая раздача, скачанное не засчитывается.
Торрент: Зарегистрирован [2013-03-25 16:40] · скачан: 73 раз
Статус: √ проверено
Размер: 1.46 GB
Как cкачать? Как скачать Нежный возраст через торрент | qTorrent

% Раздел Тема Автор DL S | L
Наши сериалы [ 10.4 GB ] Кризис нежного возраста / Сезон: 1 / Серии: 1-8 из 8 [2016 Мело WEB-DL 1080p] bober100 Скачать
1 | 0
Наши сериалы [ 4.47 GB ] Кризис нежного возраста / Серии: 1-8 из 8 [2016 Мело WEB-DLRip] smaster Скачать
1 | 0
Наши сериалы [ 4.87 GB ] Кризис нежного возраста / Серии: 1-8 из 8 [2016 SATRip-AVC] aleksan55 Скачать
1 | 0
Наши сериалы [ 9.31 GB ] Кризис нежного возраста / Сезон: 1 / Серии 1-8 из 8 [2016 Россия Мело WEB-DL 720p) GEKADOL Скачать
1 | 0
Русские порно фильмы [ 2.19 GB ] Татушки: Нежный возраст [2006 Gonzo. DVD9] Pir@tya2010 Скачать
1 | 0
Наши фильмы, до 2010 [ 1.46 GB ] Нежный возраст [2000 DVDRip] aspace Скачать
1 | 0


Последний раз редактировалось: Эдмонд68 (2013-01-30 20:53), всего редактировалось 1 раз


>> Регистрируемся здесь <<






Отзывы и комментарии о схеме читаем и пишем здесь: ---> Отзывы и комментарии о схеме

Новые благодарочки в телеграм довольных пользователей:
скриншот   скриншот   скриншот   скриншот   скриншот

30-01-2013 20:46 Нежный возраст Скачать торрент  

Очень люблю этот фильм, ироничный и трогательный.Сейчас так не снимают...piratbit.cc



31-01-2013 13:05 Нежный возраст Скачать торрент  

охеренный фильм...смотрел где то в 2002м...очень тронул..не для всехpiratbit.cc



    Дорогой пользователь! Огромная просьба, поблагодарите релизера, оцените раздачу и оставьте свои комментарий, если Вы скачали Нежный возраст через торрент бесплатно! Внесите свою лепту в развитие PiratBit!
    Комментировать посты могут только пользователи прошедшие не сложную регистрацию
    Показать сообщения:    

    Нежный возраст через торрент
    Скачать бесплатно Нежный возраст
    Нежный возраст скачать торрент
    Нежный возраст смотреть онлайн
    Cкачать фильм Нежный возраст бесплатно
    Нежный возраст скачать торрент в хорошем качестве
    Нежный возраст смотреть онлайн бесплатно в хорошем качестве


    Вы не можете начинать темы
    Вы не можете отвечать на сообщения
    Вы не можете редактировать свои сообщения
    Вы не можете удалять свои сообщения
    Вы не можете голосовать в опросах
    Вы не можете прикреплять файлы к сообщениям
    Вы можете скачивать файлы