Лицензия

30

iTunes

Как приручить дракона 3

11 сезон

1

1 сезон

гринч

iTunes

Стекло

iTunes

Клаустрофобы

8 сезон

Игра престолов

iTunes

Ральф против интернета Хит недели

ИГРА 18+

pack

ВАЖНО

!!Акция!!

Alien_RageХит недели

RePack

Resident Evil 21
pack

RePack

Metro:Exodus

!!Акция!!

Alien_Rage

RePack

fifa19

RePack

Assassins Creed: Odyssey

RePack

NEED FOR SPEED™ PAYBACK

3 сезон

9 сезон

Бесстыжие 9 сезон

Все сериалы

все сериалы на PB.wtf

RePack

FAR CRY 5
Ребята, критически не успеваем дособрать 3200р. для оплаты серверов за Март (всвязи с блокировками трафик упал в 3 раза), 1-2р., выручайте.
  

Когда боги уснули (Игорь Парфёнов) [2006 г., драма, криминал, DVDRip] piratbit.cc

Когда боги уснули через торрент piratbit.cc

Размер: 2.04 GB | Добавлен: 6 лет 2 мес. назад | Торрент скачан:20 раз
Скачать  

02-02-2013 12:25 Когда боги уснули Скачать торрент  

Когда боги уснули

Год выпуска: 2006
Страна: Украина
Жанр: драма, криминал
Продолжительность: 01:50:45
Перевод: Не требуется

Режиссер: Игорь Парфёнов
Продюссер: Игорь Парфёнов
Сценарий: Игорь Парфёнов, Лев Толстой

Мировой рейтинг IMDB


В ролях: Никита Джигурда, Армен Джигарханян, Леонид Тарабаринов, Эллен Слюсарччи, Александр Тартышников

Описание: Драма, развернувшаяся на ипподроме и трагическая судьба лошади не только ломают жизни людей, но и размывают границу добра и зла, бросая вызов существующей системе ценностей. Ставка на победу в 2 млн. долларов, сделанная Ражевым фактически является смертным приговором для самого коня, так как в случае победы с него сдирают шкуру. Это условие является прихотью другой противоборствующей стороны. Спасая коня, гибнет его тренер Руслан, кончает жизнь самоубийством его невеста Лена, гибнет и конь Холстомер, а судьбу самого Ражева решит жребий и брошенная монета...

Качество: DVDRip
Формат: AVI
Видео кодек: XviD
Аудио кодек: AC3
Видео: 720x528 (1.36:1), 25 fps, XviD build 50 ~2250 kbps avg, 0.24 bit/pixel
Аудио#1: 48 kHz, AC3 Dolby Digital, 3/2 (L,C,R,l,r) + LFE ch, ~384 kbps
скриншот   скриншот   скриншот   скриншот   скриншот   скриншот  

Общее
Полное имя : F:ЗакачкиKogda.Bogi.Usnuli.2006.DVDRip.avi
Формат : AVI
Формат/Информация : Audio Video Interleave
Профиль формата : OpenDML
Размер файла : 2,04 Гбайт
Продолжительность : 1 ч. 50 м.
Общий поток : 2642 Кбит/сек
Программа кодирования : VirtualDubMod 1.5.10.3 | www.virtualdub-fr.org || (build 2550/release)
Библиотека кодирования : VirtualDubMod build 2550/release

Видео
Идентификатор : 0
Формат : MPEG-4 Visual
Профиль формата : Advanced Simple@L5
Параметр BVOP формата : 2
Параметр QPel формата : Нет
Параметр GMC формата : Без точки перехода
Параметр матрицы формата : Default (H.263)
Идентификатор кодека : XVID
Идентификатор кодека/Подсказка : XviD
Продолжительность : 1 ч. 50 м.
Битрейт : 2245 Кбит/сек
Ширина : 720 пикселей
Высота : 528 пикселей
Соотношение сторон : 4:3
Частота кадров : 25,000 кадров/сек
Цветовое пространство : YUV
Субдискретизация насыщенности : 4:2:0
Битовая глубина : 8 бит
Тип развёртки : Прогрессивная
Метод сжатия : С потерями
Бит/(Пиксели*Кадры) : 0.236
Размер потока : 1,74 Гбайт (85%)
Библиотека кодирования : XviD 1.2.1 (UTC 2008-12-04)

Аудио
Идентификатор : 1
Формат : AC-3
Формат/Информация : Audio Coding 3
Расширение режима : CM (complete main)
Идентификатор кодека : 2000
Продолжительность : 1 ч. 50 м.
Вид битрейта : Постоянный
Битрейт : 384 Кбит/сек
Каналы : 6 каналов
Расположение каналов : Front: L C R, Side: L R, LFE
Частота : 48,0 КГц
Битовая глубина : 16 бит
Метод сжатия : С потерями
Размер потока : 304 Мбайт (15%)
Выравнивание : Разделение по промежуткам
Продолжительность промежутка : 40 мс. (1,00 видеокадр)
Время предзагрузки промежутка : 500 мс.


Когда боги уснули скачать торрент


piratbit.cc



Скачать Когда боги уснули через торрент http://i51.fastpic.ru/big/2013/0202/ae/fc5b33cc95624e26769ed0bf565464ae.jpg Скачать фильм Когда боги уснули через торрент бесплантно в хорошем качестве Описание: Драма, развернувшаяся на ипподроме и трагическая судьба лошади не только ломают жизни людей, но и размывают границу добра и зла, ... 5 10 1
Info! Золотая раздача, скачанное не засчитывается.
Торрент: Зарегистрирован [2013-02-02 12:25] · скачан: 20 раз
Статус: √ проверено
Размер: 2.04 GB
Как cкачать? Как скачать Когда боги уснули через торрент | qTorrent


>> Регистрируемся здесь <<






Отзывы и комментарии о схеме читаем и пишем здесь: ---> Отзывы и комментарии о схеме

Новые благодарочки в телеграм довольных пользователей:
скриншот   скриншот   скриншот   скриншот   скриншот
    Дорогой пользователь! Огромная просьба, поблагодарите релизера, оцените раздачу и оставьте свои комментарий, если Вы скачали Когда боги уснули через торрент бесплатно! Внесите свою лепту в развитие PiratBit!
    Комментировать посты могут только пользователи прошедшие не сложную регистрацию
    Показать сообщения:    

    Когда боги уснули через торрент
    Скачать бесплатно Когда боги уснули
    Когда боги уснули скачать торрент
    Когда боги уснули смотреть онлайн
    Cкачать фильм Когда боги уснули бесплатно
    Когда боги уснули скачать торрент в хорошем качестве
    Когда боги уснули смотреть онлайн бесплатно в хорошем качестве


    Вы не можете начинать темы
    Вы не можете отвечать на сообщения
    Вы не можете редактировать свои сообщения
    Вы не можете удалять свои сообщения
    Вы не можете голосовать в опросах
    Вы не можете прикреплять файлы к сообщениям
    Вы можете скачивать файлы