Лицензия

30

iTunes

мы

iTunes

1

1 сезон

Чернобыль

iTunes

1+1

iTunes

Закатать в асфальт

8 сезон

Игра престолов

1 сезон

Ральф против интернета

ИГРА 18+

pack

ВАЖНО

!!Акция!!

Alien_RageХит недели

RePack

Resident Evil 21
pack

RePack

Metro:Exodus

!!Акция!!

Alien_Rage

RePack

fifa19

RePack

Assassins Creed: Odyssey

RePack

NEED FOR SPEED™ PAYBACK

3 сезон

9 сезон

Бесстыжие 9 сезон

Все сериалы

все сериалы на PB.wtf

RePack

FAR CRY 5
Ребята, катастрофически не хватает 2730р. для оплаты серверов за АПРЕЛЬ (всвязи с блокировками трафик упал в 3 раза), 1-2р., выручайте.
  

Мама не горюй 2 (Максим Пежемский) [2005 г., комедия, криминал, DVDRip] piratbit.cc

Мама не горюй 2 через торрент piratbit.cc

Размер: 1.46 GB | Добавлен: 6 лет 1 мес. назад | Торрент скачан:51 раз
Скачать  

04-04-2013 11:48 Мама не горюй 2 Скачать торрент  

Мама не горюй 2
Год выпуска: 2005
Страна: Россия
Жанр: комедия, криминал,
Продолжительность: 01:42:15

Режиссер: Максим Пежемский
Продюссер: Сергей Сельянов, Мария Ушакова
Сценарий: Константин Мурзенко, Максим Пежемский



В ролях:
Гоша Куценко
Андрей Панин
Николай Чиндяйкин
Сергей Колтаков
Евгений Сидихин
Нина Русланова
Иван Бортник
Владимир Епифанцев
Спартак Сумченко
Михаил Ефремов,

Описание: События картины происходят спустя 8 лет. На этот раз в центре сюжета — не криминальные разборки, а политические интриги. В приморском городе N начинаются выборы мэра. Кандидаты — местный криминальный авторитет Турист и городской Прокурор.

Жизнь города резко меняется: борьба за Влacть набирает обороты: в город приезжают московские политтехнологи, изо всех сил работает местное телевидение, задействованы все криминальные группировки, поддержать кандидатов приехали даже звезды шоу-бизнеса.

Все идет неплохо, пока на побывку не прибывает Морячок. Жизнь тихого городка становится окончательно непредсказуемой…

Качество: DVDRip
Формат: AVI
Видео кодек: XviD
Аудио кодек: AC3
Видео: 720x384, (1,85:1), 25,000 кадров/сек, 1583 Кбит/сек, 0.229 бит/пикс
Аудио#1: 48,0 КГц, АС3, 6 каналов, 448 Кбит/сек


скриншот  скриншот  скриншот  скриншот  скриншот  скриншот  
Общее
Полное имя : D:загрузкиМама не горюй 2 DVDRip.avi
Формат : AVI
Формат/Информация : Audio Video Interleave
Размер файла : 1,46 Гбайт
Продолжительность : 1 ч. 42 м.
Общий поток : 2041 Кбит/сек
Программа кодирования : VirtualDubMod 1.5.10.2 (build 2540/release)
Библиотека кодирования : VirtualDubMod build 2540/release

Видео
Идентификатор : 0
Формат : MPEG-4 Visual
Профиль формата : Advanced Simple@L5
Параметр BVOP формата : 1
Параметр QPel формата : Нет
Параметр GMC формата : Без точки перехода
Параметр матрицы формата : Выборочная
Идентификатор кодека : XVID
Идентификатор кодека/Подсказка : XviD
Продолжительность : 1 ч. 42 м.
Битрейт : 1583 Кбит/сек
Ширина : 720 пикселей
Высота : 384 пикселя
Соотношение сторон : 1,85:1
Частота кадров : 25,000 кадров/сек
Цветовое пространство : YUV
Субдискретизация насыщенности : 4:2:0
Битовая глубина : 8 бит
Тип развёртки : Прогрессивная
Метод сжатия : С потерями
Бит/(Пиксели*Кадры) : 0.229
Размер потока : 1,13 Гбайт (78%)
Библиотека кодирования : XviD 1.2.1 (UTC 2008-12-04)

Аудио
Идентификатор : 1
Формат : AC-3
Формат/Информация : Audio Coding 3
Расширение режима : CM (complete main)
Параметр Endianness формата : Big
Идентификатор кодека : 2000
Продолжительность : 1 ч. 42 м.
Вид битрейта : Постоянный
Битрейт : 448 Кбит/сек
Каналы : 6 каналов
Расположение каналов : Front: L C R, Side: L R, LFE
Частота : 48,0 КГц
Битовая глубина : 16 бит
Метод сжатия : С потерями
Размер потока : 328 Мбайт (22%)
Выравнивание : Разделение по промежуткам
Продолжительность промежутка : 40 мс. (1,00 видеокадр)
Время предзагрузки промежутка : 500 мс.

piratbit.cc



Скачать Мама не горюй 2 через торрент http://pic.kartinco.top/images/2/157edbmntb.jpg Скачать фильм Мама не горюй 2 через торрент бесплантно в хорошем качестве Описание: События картины происходят спустя 8 лет. На этот раз в центре сюжета — не криминальные разборки, а политические интриги. В ... 7.9 10 7
Info! Золотая раздача, скачанное не засчитывается.
Торрент: Зарегистрирован [2013-04-04 11:48] · скачан: 51 раз
Статус: √ проверено
Размер: 1.46 GB
Как cкачать? Как скачать Мама не горюй 2 через торрент | qTorrent


>> Регистрируемся здесь <<






Отзывы и комментарии о схеме читаем и пишем здесь: ---> Отзывы и комментарии о схеме

Новые благодарочки в телеграм довольных пользователей:
скриншот   скриншот   скриншот   скриншот   скриншот

24-12-2014 03:40 Мама не горюй 2 Скачать торрент  

Скорости дайте!piratbit.cc



    Дорогой пользователь! Огромная просьба, поблагодарите релизера, оцените раздачу и оставьте свои комментарий, если Вы скачали Мама не горюй 2 через торрент бесплатно! Внесите свою лепту в развитие PiratBit!
    Комментировать посты могут только пользователи прошедшие не сложную регистрацию
    Показать сообщения:    

    Мама не горюй 2 через торрент
    Скачать бесплатно Мама не горюй 2
    Мама не горюй 2 скачать торрент
    Мама не горюй 2 смотреть онлайн
    Cкачать фильм Мама не горюй 2 бесплатно
    Мама не горюй 2 скачать торрент в хорошем качестве
    Мама не горюй 2 смотреть онлайн бесплатно в хорошем качестве


    Вы не можете начинать темы
    Вы не можете отвечать на сообщения
    Вы не можете редактировать свои сообщения
    Вы не можете удалять свои сообщения
    Вы не можете голосовать в опросах
    Вы не можете прикреплять файлы к сообщениям
    Вы можете скачивать файлы