iTunes

1+1

iTunes

мы

iTunes

1

1 сезон

Чернобыль

1 сезон

Ральф против интернета

Лицензия

ПШазам

8 сезон

Игра престолов

Лицензия

30
pack

ВАЖНО

!!Акция!!

Alien_RageХит недели

RePack

Resident Evil 21

ИГРА 18+

pack

RePack

Metro:Exodus

!!Акция!!

Alien_Rage

RePack

fifa19

RePack

Assassins Creed: Odyssey

RePack

NEED FOR SPEED™ PAYBACK

3 сезон

9 сезон

Бесстыжие 9 сезон

Все сериалы

все сериалы на PB.wtf

RePack

FAR CRY 5
Ребята, катастрофически не хватает 2730р. для оплаты серверов за ИЮНЬ (всвязи с блокировками трафик упал в 3 раза), 1-2р., выручайте.
  

У Фантоцци опять неприятности / Fantozzi subisce ancora (Нери Паренти) [1983 г., комедия, DVDRip, MVO] piratbit.cc

У Фантоцци опять неприятности через торрент piratbit.cc

Размер: 1.37 GB | Добавлен: 6 лет 3 мес. назад | Торрент скачан:264 раза
Скачать  

05-04-2013 14:30 У Фантоцци опять неприятности Скачать торрент  

У Фантоцци опять неприятности / Fantozzi subisce ancora
Год выпуска: 1983
Страна: Италия
Жанр: комедия
Продолжительность: 01:23:47
Перевод: Профессиональный многоголосый, Лицензия
Режиссер: Нери Паренти
Продюссер: Бруно Альтиссими, Клаудио Сарачени
Сценарий: Паоло Вилладжо, Леонардо Бенвенути, Пьеро Де Бернарди









В ролях: Паоло Вилладжо, Анна Маццамауро, Милена Вукотич, Риккардо Гарроне, Джулио Фарнезе, Карло Коломбо, Антонио Франчиони, Плинио Фернандо, Уго Болонья, Марио Педон




Описание: Четвертый эпизод саги о бухгалтере Фантоцци. Вновь у Фантоцци возникает масса проблем на рабочем месте и в семье. Вместо того, чтобы решить хотя бы некоторые из них, Фантоцци наживает себе новые проблемы, втянувшись в одну мафиозную авантюру. А тут еще дочка, мартышкообразная, Марианджела со своим сексуальным маньяком. И если Фантоцци отправляется купаться, то именно его зачерпнет вместес водой пожарный вертолет, чтобы вылить в пылающий огненный очаг…




Качество: DVDRip
Формат: AVI
Видео кодек: XviD
Аудио кодек: AC3
Видео: 704x384 (1.83:1), 25 fps, XviD build 47 ~2138 kbps avg, 0.32 bit/pixel
Аудио: 48 kHz, AC3 Dolby Digital, 2/0 (L,R) ch, ~192 kbps
скриншот   скриншот   скриншот  

General
Complete name : В:U.Fantocci.opyatj.nepriyatnosti.1983.XviD.DVDRip.avi
Format : AVI
Format/Info : Audio Video Interleave
File size : 1.37 GiB
Duration : 1h 23mn
Overall bit rate : 2 337 Kbps
Writing application : VirtualDubMod 1.5.4.1 (build 2178/release)
Writing library : VirtualDubMod build 2178/release

Video
ID : 0
Format : MPEG-4 Visual
Format profile : Advanced Simple@L5
Format settings, BVOP : 1
Format settings, QPel : No
Format settings, GMC : No warppoints
Format settings, Matrix : Custom
Codec ID : XVID
Codec ID/Hint : XviD
Duration : 1h 23mn
Bit rate : 2 138 Kbps
Width : 704 pixels
Height : 384 pixels
Display aspect ratio : 1.85:1
Frame rate : 25.000 fps
Color space : YUV
Chroma subsampling : 4:2:0
Bit depth : 8 bits
Scan type : Progressive
Compression mode : Lossy
Bits/(Pixel*Frame) : 0.316
Stream size : 1.25 GiB (91%)
Writing library : XviD 1.2.0.dev47 (UTC 2006-11-01)

Audio
ID : 1
Format : AC-3
Format/Info : Audio Coding 3
Mode extension : CM (complete main)
Format settings, Endianness : Big
Codec ID : 2000
Duration : 1h 23mn
Bit rate mode : Constant
Bit rate : 192 Kbps
Channel(s) : 2 channels
Channel positions : Front: L R
Sampling rate : 48.0 KHz
Bit depth : 16 bits
Compression mode : Lossy
Stream size : 115 MiB (8%)
Alignment : Split accross interleaves
Interleave, duration : 96 ms (2.40 video frames)
Interleave, preload duration : 96 ms
Language : Russian


У Фантоцци опять неприятности скачать торрент


piratbit.cc



Скачать У Фантоцци опять неприятности через торрент http://pic.kartinco.top/images/2/9d62bsdfcs.jpg Скачать фильм У Фантоцци опять неприятности через торрент бесплантно в хорошем качестве Описание: Четвертый эпизод саги о бухгалтере Фантоцци. Вновь у Фантоцци возникает масса проблем на рабочем месте и в семье. Вместо того, ... 9.3 10 14
Info! Золотая раздача, скачанное не засчитывается.
Торрент: Зарегистрирован [2013-04-05 14:30] · скачан: 264 раз
Статус: √ проверено
Размер: 1.37 GB
Как cкачать? Как скачать У Фантоцци опять неприятности через торрент | qTorrent


>> Регистрируемся здесь <<






Отзывы и комментарии о схеме читаем и пишем здесь: ---> Отзывы и комментарии о схеме

Новые благодарочки в телеграм довольных пользователей:
скриншот   скриншот   скриншот   скриншот   скриншот

05-04-2013 17:37 У Фантоцци опять неприятности Скачать торрент  

Гы. Люблю эти фильмы. :good2:piratbit.cc



    Дорогой пользователь! Огромная просьба, поблагодарите релизера, оцените раздачу и оставьте свои комментарий, если Вы скачали У Фантоцци опять неприятности через торрент бесплатно! Внесите свою лепту в развитие PiratBit!
    Комментировать посты могут только пользователи прошедшие не сложную регистрацию
    Показать сообщения:    

    У Фантоцци опять неприятности через торрент
    Скачать бесплатно У Фантоцци опять неприятности
    У Фантоцци опять неприятности скачать торрент
    У Фантоцци опять неприятности смотреть онлайн
    Cкачать фильм У Фантоцци опять неприятности бесплатно
    У Фантоцци опять неприятности скачать торрент в хорошем качестве
    У Фантоцци опять неприятности смотреть онлайн бесплатно в хорошем качестве


    Вы не можете начинать темы
    Вы не можете отвечать на сообщения
    Вы не можете редактировать свои сообщения
    Вы не можете удалять свои сообщения
    Вы не можете голосовать в опросах
    Вы не можете прикреплять файлы к сообщениям
    Вы можете скачивать файлы