iTunes

1+1

iTunes

мы

iTunes

1

iTunes

Чернобыль

1 сезон

Ральф против интернета

Лицензия

ПШазам

Лицензия

Игра престолов

Лицензия

30
pack

ВАЖНО

!!Акция!!

Alien_RageХит недели

RePack

Resident Evil 21

ИГРА 18+

pack

RePack

Metro:Exodus

!!Акция!!

Alien_Rage

RePack

fifa19

RePack

Assassins Creed: Odyssey

RePack

NEED FOR SPEED™ PAYBACK

3 сезон

9 сезон

Бесстыжие 9 сезон

Все сериалы

все сериалы на PB.wtf

RePack

FAR CRY 5
Ребята, катастрофически не хватает 7730р. для оплаты серверов за ИЮЛЬ (всвязи с блокировками трафик упал в 3 раза), 1-2р., выручайте.
  

Игры мотыльков (Андрей Прошкин) [2004, драма, DVDRip] piratbit.cc

Игры мотыльков через торрент piratbit.cc

Размер: 1.46 GB | Добавлен: 6 лет 4 мес. назад | Торрент скачан:90 раз
Скачать  

16-04-2013 13:15 Игры мотыльков Скачать торрент  

Игры мотыльков

Год выпуска: 2004
Страна: Россия
Жанр: драма
Продолжительность: 01:40:41
Перевод: Не требуется

Режиссер: Андрей Прошкин

В ролях: Алексей Чадов, Оксана Акиньшина, Сергей Шнуров, Юрий Кузнецов, Андрей Смоляков, Алексей Шевченков

Описание: Шестнадцатилетний рок-музыкант из уральского городка приглашен в Москву на финал телевизионного музыкального конкурса. Накануне отъезда, шатаясь по улице с друзьями, он, переполненный ощущением грядущей удачи, из лихости угоняет автомобиль. Недолгая поездка заканчивается трагедией - ребята сбивают человека и, бросив разбитый автомобиль, убегают…Победителями конкурса жюри объявляет других, а Костя возвращается домой, где ведется следствие. Мать и безответно влюбленная в него девушка готовы на все, чтобы спасти парня от тюрьмы, но он, ожесточившись от неудач и разочарований, поступает по-своему…

Качество видео: DVDRip
Формат видео: AVI
Видео кодек: XviD
Аудио кодек: AC3
Видео: 720x384 (1.88:1), 25 fps, XviD build 50 ~1615 kbps avg, 0.23 bit/pixel
Аудио: 48 kHz, AC3 Dolby Digital, 3/2 (L,C,R,l,r) + LFE ch, ~448 kbps


D:igry motylkov_T05.avi
General
Complete name : D:igry motylkov_DVDRip_1,45 by dexter lex.avi
Format : AVI
Format/Info : Audio Video Interleave
File size : 1.46 GiB
Duration : 1h 40mn
Overall bit rate : 2 073 Kbps
Writing application : VirtualDubMod 1.5.10.3 | www.virtualdub-fr.org || (build 2550/release)
Writing library : VirtualDubMod build 2550/release
Video #0
ID : 0
Format : MPEG-4 Visual
Format profile : Advanced Simple@L5
Format settings, BVOP : 1
Format settings, QPel : No
Format settings, GMC : No warppoints
Format settings, Matrix : Custom
Codec ID : XVID
Codec ID/Hint : XviD
Duration : 1h 40mn
Bit rate : 1 615 Kbps
Width : 720 pixels
Height : 384 pixels
Display aspect ratio : 1.88:1
Frame rate : 25.000 fps
Color space : YUV
Chroma subsampling : 4:2:0
Bit depth : 8 bits
Scan type : Progressive
Compression mode : Lossy
Bits/(Pixel*Frame) : 0.234
Stream size : 1.14 GiB (78%)
Writing library : XviD 1.2.1 (UTC 2008-12-04)
Audio #1
ID : 1
Format : AC-3
Format/Info : Audio Coding 3
Mode extension : ME (music and effects)
Format settings, Endianness : Big
Codec ID : 2000
Duration : 1h 40mn
Bit rate mode : Constant
Bit rate : 448 Kbps
Channel(s) : 6 channels
Channel positions : Front: L C R, Side: L R, LFE
Sampling rate : 48.0 KHz
Bit depth : 16 bits
Compression mode : Lossy
Stream size : 323 MiB (22%)
Alignment : Split accross interleaves
Interleave, duration : 40 ms (1.00 video frame)
Interleave, preload duration : 500 ms
piratbit.cc



Скачать Игры мотыльков через торрент http://i29.fastpic.ru/big/2012/0108/1a/fb0386fe44de43150c48d340eae3c51a.jpg Скачать фильм Игры мотыльков через торрент бесплантно в хорошем качестве Описание: Шестнадцатилетний рок-музыкант из уральского городка приглашен в Москву на финал телевизионного музыкального конкурса. Накануне ... 9.3 10 4
Info! Золотая раздача, скачанное не засчитывается.
Торрент: Зарегистрирован [2013-04-16 13:15] · скачан: 90 раз
Статус: √ проверено
Размер: 1.46 GB
Как cкачать? Как скачать Игры мотыльков через торрент | qTorrent

% Раздел Тема Автор DL S | L
Наши фильмы, до 2010 [ 747 MB ] Игры мотыльков [2004 DVDRip] dexter lex Скачать
1 | 0


>> Регистрируемся здесь <<






Отзывы и комментарии о схеме читаем и пишем здесь: ---> Отзывы и комментарии о схеме

Новые благодарочки в телеграм довольных пользователей:
скриншот   скриншот   скриншот   скриншот   скриншот

16-04-2013 19:57 Игры мотыльков Скачать торрент  

Качайте на здоровье)piratbit.cc



    Дорогой пользователь! Огромная просьба, поблагодарите релизера, оцените раздачу и оставьте свои комментарий, если Вы скачали Игры мотыльков через торрент бесплатно! Внесите свою лепту в развитие PiratBit!
    Комментировать посты могут только пользователи прошедшие не сложную регистрацию
    Показать сообщения:    

    Игры мотыльков через торрент
    Скачать бесплатно Игры мотыльков
    Игры мотыльков скачать торрент
    Игры мотыльков смотреть онлайн
    Cкачать фильм Игры мотыльков бесплатно
    Игры мотыльков скачать торрент в хорошем качестве
    Игры мотыльков смотреть онлайн бесплатно в хорошем качестве


    Вы не можете начинать темы
    Вы не можете отвечать на сообщения
    Вы не можете редактировать свои сообщения
    Вы не можете удалять свои сообщения
    Вы не можете голосовать в опросах
    Вы не можете прикреплять файлы к сообщениям
    Вы можете скачивать файлы