iTunes

1+1

iTunes

мы

iTunes

1

iTunes

Чернобыль

iTunes

Ральф против интернета

Лицензия

ПШазам

Лицензия

Игра престолов

Лицензия

30
pack

ВАЖНО

!!Акция!!

Alien_RageХит недели

RePack

Resident Evil 21

ИГРА 18+

pack

RePack

Metro:Exodus

!!Акция!!

Alien_Rage

RePack

fifa19

RePack

Assassins Creed: Odyssey

RePack

NEED FOR SPEED™ PAYBACK

3 сезон

9 сезон

Бесстыжие 9 сезон

Все сериалы

все сериалы на PB.wtf

RePack

FAR CRY 5
Ребята, катастрофически не хватает 7730р. для оплаты серверов за АВГУСТ (всвязи с блокировками трафик упал в 3 раза), 1-2р., выручайте.
  

Чистыми руками / Cu miinile curate / With Clean Hands (Серджиу Николаеску) [1972 г., Детектив, боевик, триллер, DVDRip, Профессиональный (дублированный)] piratbit.cc

Чистыми руками через торрент piratbit.cc

Размер: 1.37 GB | Добавлен: 6 лет 4 мес. назад | Торрент скачан:32 раза
Скачать  

06-05-2013 09:24 Чистыми руками Скачать торрент  

Чистыми руками / Cu miinile curate / With Clean Hands
Год выпуска: 1972
Страна: Румыния
Жанр: Детектив, боевик, триллер,
Продолжительность: 01:35:17
Перевод: Профессиональный (дублированный) - Советский дубляж

Режиссер: Серджиу Николаеску
Продюссер: -
Сценарий: Титус Попович, Петре Сэлкудяну

Мировой рейтинг IMDB 7.10 (526)


В ролях: Нита Анастасе, Ион Апахидяну, Корина Кириак, Иларион Чобану, Джордже Константин, Стелиан Кременчюк, Георге Диникэ, Александру Добреску, Дорин Дрон, Жан Лорин Флореску,
Роли дублировали: Владимир Балашов, Владимир Ферапонтов, Даниил Нетребин, Николай Граббе, Павел Винник,

Описание: Апрель 1945 года. Бухарест потрясают известия о новых и новых преступлениях, совершенных бандой неуловимого Семаки, короля уголовного мира румынской столицы. В это время на службу в полицию приходит Михай Роман.Его новый коллега и напарник — человек совершенно иных взглядов, иного темперамента и воспитания комиссар Миклован. Он ни в чем не сходятся, как Жеглов и Шарапов, но, тем не менее, борьба противоположностей приводит к потрясающему результату — уничтожению банды Семаки.


Доп. информация: Так как фильм купировался для советского проката, в вырезанных моментах - одноголосый перевод.

Качество: DVDRip
Формат: AVI
Видео кодек: XviD
Аудио кодек: AC3
Видео: 720 x 400 (16:9), 25 fps, XviD, 1853 kbps, 0.257 bit/pixel
Аудио#1: 48 kHz, AC3 Dolby Digital, 1/0 (C) ch, 192 kbps, DUB



скриншот   скриншот   скриншот   скриншот   скриншот   скриншот  
Общее
Полное имя : E:Chistumi.rukami.(1972).avi
Формат : AVI
Формат/Информация : Audio Video Interleave
Размер файла : 1,37 Гбайт
Продолжительность : 1 ч. 35 м.
Общий поток : 2054 Кбит/сек
Программа кодирования : VirtualDubModRus 1.5.10.2 (build 2542/release)
Библиотека кодирования : VirtualDubMod build 2542/release

Видео
Идентификатор : 0
Формат : MPEG-4 Visual
Профиль формата : Advanced Simple@L5
Параметр BVOP формата : 2
Параметр QPel формата : Нет
Параметр GMC формата : Без точки перехода
Параметр матрицы формата : Default (H.263)
Режим смешивания : Сжатый битовый поток
Идентификатор кодека : XVID
Идентификатор кодека/Подсказка : XviD
Продолжительность : 1 ч. 35 м.
Битрейт : 1853 Кбит/сек
Ширина : 720 пикс.
Высота : 400 пикс.
Соотношение сторон : 16:9
Частота кадров : 25,000 кадр/сек
Цветовое пространство : YUV
Подвыборка цветности : 4:2:0
Битовая глубина : 8 бит
Тип развёртки : Прогрессивная
Метод сжатия : С потерями
Бит/(Пиксели*Кадры) : 0.257
Размер потока : 1,23 Гбайт (90%)
Библиотека кодирования : XviD 61

Аудио
Идентификатор : 1
Формат : AC-3
Формат/Информация : Audio Coding 3
Расширение режима : CM (complete main)
Идентификатор кодека : 2000
Продолжительность : 1 ч. 35 м.
Вид битрейта : Постоянный
Битрейт : 192 Кбит/сек
Канал(ы) : 1 канал
Расположение каналов : Front: C
Частота : 48,0 КГц
Битовая глубина : 16 бит
Метод сжатия : С потерями
Размер потока : 131 Мбайт (9%)
Выравнивание : Разделение по промежуткам
Продолжительность промежутка : 40 мс. (1,00 видеокадр)
Время предзагрузки промежутка : 500 ms


Чистыми руками скачать торрент


piratbit.cc



Скачать Чистыми руками через торрент http://i47.fastpic.ru/big/2013/0506/e8/0f610e662720c5e998f4454a152f75e8.jpg Скачать фильм Чистыми руками через торрент бесплантно в хорошем качестве Описание: Апрель 1945 года. Бухарест потрясают известия о новых и новых преступлениях, совершенных бандой неуловимого Семаки, короля ... 9.3 10 4
Info! Золотая раздача, скачанное не засчитывается.
Торрент: Зарегистрирован [2013-05-06 09:24] · скачан: 32 раз
Статус: √ проверено
Размер: 1.37 GB
Как cкачать? Как скачать Чистыми руками через торрент | qTorrent


>> Регистрируемся здесь <<






Отзывы и комментарии о схеме читаем и пишем здесь: ---> Отзывы и комментарии о схеме

Новые благодарочки в телеграм довольных пользователей:
скриншот   скриншот   скриншот   скриншот   скриншот
    Дорогой пользователь! Огромная просьба, поблагодарите релизера, оцените раздачу и оставьте свои комментарий, если Вы скачали Чистыми руками через торрент бесплатно! Внесите свою лепту в развитие PiratBit!
    Комментировать посты могут только пользователи прошедшие не сложную регистрацию
    Показать сообщения:    

    Чистыми руками через торрент
    Скачать бесплатно Чистыми руками
    Чистыми руками скачать торрент
    Чистыми руками смотреть онлайн
    Cкачать фильм Чистыми руками бесплатно
    Чистыми руками скачать торрент в хорошем качестве
    Чистыми руками смотреть онлайн бесплатно в хорошем качестве


    Вы не можете начинать темы
    Вы не можете отвечать на сообщения
    Вы не можете редактировать свои сообщения
    Вы не можете удалять свои сообщения
    Вы не можете голосовать в опросах
    Вы не можете прикреплять файлы к сообщениям
    Вы можете скачивать файлы