iTunes

1+1

iTunes

мы

iTunes

1

1 сезон

Чернобыль

1 сезон

Ральф против интернета

Лицензия

ПШазам

8 сезон

Игра престолов

Лицензия

30
pack

ВАЖНО

!!Акция!!

Alien_RageХит недели

RePack

Resident Evil 21

ИГРА 18+

pack

RePack

Metro:Exodus

!!Акция!!

Alien_Rage

RePack

fifa19

RePack

Assassins Creed: Odyssey

RePack

NEED FOR SPEED™ PAYBACK

3 сезон

9 сезон

Бесстыжие 9 сезон

Все сериалы

все сериалы на PB.wtf

RePack

FAR CRY 5
Ребята, катастрофически не хватает 2730р. для оплаты серверов за ИЮНЬ (всвязи с блокировками трафик упал в 3 раза), 1-2р., выручайте.
  

Последний патрон / Ultimul cartus (Серджиу Николаеску) [1975 г., боевик, криминал, DVDRip, Профессиональный (дублированный)] piratbit.cc

Последний патрон через торрент piratbit.cc

Размер: 1.36 GB | Добавлен: 6 лет 2 мес. назад | Торрент скачан:63 раза
Скачать  

06-05-2013 13:22 Последний патрон Скачать торрент  

Последний патрон / Ultimul cartus
Год выпуска: 1975
Страна: Румыния
Жанр: боевик, криминал,
Продолжительность: 01:34:46
Перевод: Профессиональный (дублированный) - Советский дубляж

Режиссер: Серджиу Николаеску
Продюссер: Лидиа Попита
Сценарий: Титус Попович, Петре Сэлкудяну

Мировой рейтинг IMDB 6.90 (380)


В ролях: Иларион Чобану, Джордже Константин, Амза Пелля, Себастьян Папаяни, Марга Барбу, Ион Бесою, Коля Рэуту, Жан Константин, Маня Александру, Матей Александру,
Роли дублировали: Валерий Малышев, Лев Поляков, Феликс Яворский, Николай Граббе, Алексей Алексеев,

Описание: Декабрь 1945 года. Освобожденный по решению суда антиквар Семако вновь берется за свое. Бандиты бесчинствуют, но на их пути по прежнему стоит комиссар Михай Роман. Кровь льется рекой, гибнут близкие Михаю люди. Насилие, кажется, торжествует, — однако, комиссар Роман приберег для Симаки последний патрон.

Доп. информация: Так как фильм купировался для советского проката, в вырезанных моментах - одноголосый перевод.

Качество: DVDRip
Формат: AVI
Видео кодек: XviD
Аудио кодек: AC3
Видео: 720 x 400 (16:9), 25 fps, XviD, 1853 kbps, 0.257 bit/pixel
Аудио#1: 48 kHz, AC3 Dolby Digital, 1/0 (C) ch, 192 kbps, DUB



скриншот   скриншот   скриншот   скриншот   скриншот   скриншот  
Общее
Полное имя : E:Poslednij.patron.(1975).avi
Формат : AVI
Формат/Информация : Audio Video Interleave
Размер файла : 1,36 Гбайт
Продолжительность : 1 ч. 34 м.
Общий поток : 2054 Кбит/сек
Программа кодирования : VirtualDubModRus 1.5.10.2 (build 2542/release)
Библиотека кодирования : VirtualDubMod build 2542/release

Видео
Идентификатор : 0
Формат : MPEG-4 Visual
Профиль формата : Advanced Simple@L5
Параметр BVOP формата : 2
Параметр QPel формата : Нет
Параметр GMC формата : Без точки перехода
Параметр матрицы формата : Default (H.263)
Режим смешивания : Сжатый битовый поток
Идентификатор кодека : XVID
Идентификатор кодека/Подсказка : XviD
Продолжительность : 1 ч. 34 м.
Битрейт : 1853 Кбит/сек
Ширина : 720 пикс.
Высота : 400 пикс.
Соотношение сторон : 16:9
Частота кадров : 25,000 кадр/сек
Цветовое пространство : YUV
Подвыборка цветности : 4:2:0
Битовая глубина : 8 бит
Тип развёртки : Прогрессивная
Метод сжатия : С потерями
Бит/(Пиксели*Кадры) : 0.257
Размер потока : 1,23 Гбайт (90%)
Библиотека кодирования : XviD 61

Аудио
Идентификатор : 1
Формат : AC-3
Формат/Информация : Audio Coding 3
Расширение режима : CM (complete main)
Идентификатор кодека : 2000
Продолжительность : 1 ч. 34 м.
Вид битрейта : Постоянный
Битрейт : 192 Кбит/сек
Канал(ы) : 1 канал
Расположение каналов : Front: C
Частота : 48,0 КГц
Битовая глубина : 16 бит
Метод сжатия : С потерями
Размер потока : 130 Мбайт (9%)
Выравнивание : Разделение по промежуткам
Продолжительность промежутка : 40 мс. (1,00 видеокадр)
Время предзагрузки промежутка : 500 ms


Последний патрон скачать торрент


piratbit.cc



Скачать Последний патрон через торрент http://i46.fastpic.ru/big/2013/0506/a8/dbb50243f9eebf6a55a3a7e2ec1567a8.jpg Скачать фильм Последний патрон через торрент бесплантно в хорошем качестве Описание: Декабрь 1945 года. Освобожденный по решению суда антиквар Семако вновь берется за свое. Бандиты бесчинствуют, но на их пути по ... 9.9 10 7
Info! Золотая раздача, скачанное не засчитывается.
Торрент: Зарегистрирован [2013-05-06 13:22] · скачан: 63 раз
Статус: √ проверено
Размер: 1.36 GB
Как cкачать? Как скачать Последний патрон через торрент | qTorrent

% Раздел Тема Автор DL S | L
Классика зарубежного кино [ 700 MB ] Последний патрон / Ultimul cartus [1975 DVDRip DUB ] jump88 Скачать
1 | 0


>> Регистрируемся здесь <<






Отзывы и комментарии о схеме читаем и пишем здесь: ---> Отзывы и комментарии о схеме

Новые благодарочки в телеграм довольных пользователей:
скриншот   скриншот   скриншот   скриншот   скриншот

06-05-2013 16:08 Последний патрон Скачать торрент  

ай спасибо, в последний раз оба фильма еще при союзе в к/т смотрел ))piratbit.cc



06-05-2013 17:38 Последний патрон Скачать торрент  

Всегда - Пожалуйста.piratbit.cc



    Дорогой пользователь! Огромная просьба, поблагодарите релизера, оцените раздачу и оставьте свои комментарий, если Вы скачали Последний патрон через торрент бесплатно! Внесите свою лепту в развитие PiratBit!
    Комментировать посты могут только пользователи прошедшие не сложную регистрацию
    Показать сообщения:    

    Последний патрон через торрент
    Скачать бесплатно Последний патрон
    Последний патрон скачать торрент
    Последний патрон смотреть онлайн
    Cкачать фильм Последний патрон бесплатно
    Последний патрон скачать торрент в хорошем качестве
    Последний патрон смотреть онлайн бесплатно в хорошем качестве


    Вы не можете начинать темы
    Вы не можете отвечать на сообщения
    Вы не можете редактировать свои сообщения
    Вы не можете удалять свои сообщения
    Вы не можете голосовать в опросах
    Вы не можете прикреплять файлы к сообщениям
    Вы можете скачивать файлы