Лицензия

30

iTunes

мы

iTunes

1

1 сезон

Чернобыль

1 сезон

Ральф против интернета

MVO

Покемон. Детектив Пикачу

8 сезон

Игра престолов

iTunes

1+1

ИГРА 18+

pack

ВАЖНО

!!Акция!!

Alien_RageХит недели

RePack

Resident Evil 21
pack

RePack

Metro:Exodus

!!Акция!!

Alien_Rage

RePack

fifa19

RePack

Assassins Creed: Odyssey

RePack

NEED FOR SPEED™ PAYBACK

3 сезон

9 сезон

Бесстыжие 9 сезон

Все сериалы

все сериалы на PB.wtf

RePack

FAR CRY 5
Ребята, катастрофически не хватает 2730р. для оплаты серверов за МАЙ (всвязи с блокировками трафик упал в 3 раза), 1-2р., выручайте.
  

Бумер. Фильм второй (Петр Буслов) [2005, Россия, криминальная драма, HDRip] piratbit.cc

Бумер. Фильм второй через торрент piratbit.cc

Размер: 746 MB | Добавлен: 6 лет 1 мес. назад | Торрент скачан:82 раза
Скачать  

13-05-2013 01:44 Бумер. Фильм второй Скачать торрент  

Бумер. Фильм второй

Страна: Россия
Жанр: криминальная драма
Год выпуска: 2005
Продолжительность: 01:55:20
Перевод: Не требуется
Субтиры: нет

Режиссёр: Петр Буслов

В ролях: Владимир Вдовиченков, Андрей Мерзликин, Светлана Устинова, Николай Олялин, Александр Цуркан, Феликс Антипов, Юрий Колокольников, Анна Чурина, Александр Голубев, Константин Стрельников

Описание:
Константин Огородников (Кот) выходит из колонии, не отсидев положенный срок. После всех событий - гибели друзей, тюрьмы - Кот стал другим человеком. Он хочет начать жизнь с чистого листа. Но прежде, в память о погибшем товарище, в гибели которого невольно виноват, он должен отыскать одного человека. Однако, встреча с семнадцатилетней Дашкой переворачивает его планы. Снова Кот пройдет через множество испытаний, в которых, кажется, невозможно выжить...

Качество видео: HDRip
Формат видео: AVI
Видеок кодек: XviD
Аудио кодек: MP3
Видео: 624x352 (1.77:1), 23.976 fps, XviD build 73 ~767 kbps avg, 0.14 bit/pixel
Аудио: 48 kHz, MPEG Layer 3, 2 ch, ~128.00 kbps avg

Раздача от:
D:Bumer.Film.Vtoroy.2006.HDRip [YTN] by dexter lex.avi
General
Complete name : D:Bumer.Film.Vtoroy.2006.HDRip [YTN] by dexter lex.avi
Format : AVI
Format/Info : Audio Video Interleave
File size : 746 MiB
Duration : 1h 55mn
Overall bit rate : 904 Kbps
Writing application : VirtualDubMod 1.5.10.3 | www.virtualdub-fr.org || (build 2550/release)
Writing library : VirtualDubMod build 2550/release
Video #0
ID : 0
Format : MPEG-4 Visual
Format profile : Advanced Simple@L5
Format settings, BVOP : 1
Format settings, QPel : No
Format settings, GMC : No warppoints
Format settings, Matrix : Custom
Codec ID : XVID
Codec ID/Hint : XviD
Duration : 1h 55mn
Bit rate : 767 Kbps
Width : 624 pixels
Height : 352 pixels
Display aspect ratio : 1.77:1
Frame rate : 23.976 fps
Color space : YUV
Chroma subsampling : 4:2:0
Bit depth : 8 bits
Scan type : Progressive
Compression mode : Lossy
Bits/(Pixel*Frame) : 0.146
Stream size : 632 MiB (85%)
Writing library : XviD 73
Audio #1
ID : 1
Format : MPEG Audio
Format version : Version 1
Format profile : Layer 3
Codec ID : 55
Codec ID/Hint : MP3
Duration : 1h 55mn
Bit rate mode : Constant
Bit rate : 128 Kbps
Channel(s) : 2 channels
Sampling rate : 48.0 KHz
Compression mode : Lossy
Stream size : 106 MiB (14%)
Alignment : Aligned on interleaves
Interleave, duration : 42 ms (1.00 video frame)
Interleave, preload duration : 504 ms
Writing library : LAME3.99r
Encoding settings : -m s -V 4 -q 2 -lowpass 17 -b 128
piratbit.cc



Скачать Бумер. Фильм второй через торрент http://i28.fastpic.ru/big/2012/0125/57/5d5755d1da0d4eaaf951fb826769f857.jpg Скачать фильм Бумер. Фильм второй через торрент бесплантно в хорошем качестве Описание:Константин Огородников (Кот) выходит из колонии, не отсидев положенный срок. После всех событий - гибели друзей, тюрьмы - Кот стал ... 9.7 10 7
Info! Золотая раздача, скачанное не засчитывается.
Торрент: Зарегистрирован [2013-05-13 01:44] · скачан: 82 раз
Статус: √ проверено
Размер: 746 MB
Как cкачать? Как скачать Бумер. Фильм второй через торрент | qTorrent

% Раздел Тема Автор DL S | L
Наши фильмы (Blu-ray, BD-Remux, HDDVD) [ 19.65 GB ] Бумер: Фильм второй [2006 Blu-ray Оригинальный] Бумер Скачать
1 | 0
Наши фильмы, до 2010 [ 1.37 GB ] Бумер Фильм второй [2006 DVDRip] Anonymous Скачать
1 | 0
Наши фильмы (HD, WEB-DL 720p, 1080p) [ 7.75 GB ] Бумер: Фильм второй [2006 BDRip 1080p] Бумер Скачать
1 | 0
Наши фильмы, до 2010 [ 1.46 GB ] Бумер. Фильм второй [2005 ьная BDRip] dexter lex Скачать
1 | 0


>> Регистрируемся здесь <<






Отзывы и комментарии о схеме читаем и пишем здесь: ---> Отзывы и комментарии о схеме

Новые благодарочки в телеграм довольных пользователей:
скриншот   скриншот   скриншот   скриншот   скриншот
    Дорогой пользователь! Огромная просьба, поблагодарите релизера, оцените раздачу и оставьте свои комментарий, если Вы скачали Бумер. Фильм второй через торрент бесплатно! Внесите свою лепту в развитие PiratBit!
    Комментировать посты могут только пользователи прошедшие не сложную регистрацию
    Показать сообщения:    

    Бумер. Фильм второй через торрент
    Скачать бесплатно Бумер. Фильм второй
    Бумер. Фильм второй скачать торрент
    Бумер. Фильм второй смотреть онлайн
    Cкачать фильм Бумер. Фильм второй бесплатно
    Бумер. Фильм второй скачать торрент в хорошем качестве
    Бумер. Фильм второй смотреть онлайн бесплатно в хорошем качестве


    Вы не можете начинать темы
    Вы не можете отвечать на сообщения
    Вы не можете редактировать свои сообщения
    Вы не можете удалять свои сообщения
    Вы не можете голосовать в опросах
    Вы не можете прикреплять файлы к сообщениям
    Вы можете скачивать файлы