iTunes

1+1

iTunes

мы

iTunes

1

1 сезон

Чернобыль

1 сезон

Ральф против интернета

Лицензия

ПШазам

8 сезон

Игра престолов

Лицензия

30
pack

ВАЖНО

!!Акция!!

Alien_RageХит недели

RePack

Resident Evil 21

ИГРА 18+

pack

RePack

Metro:Exodus

!!Акция!!

Alien_Rage

RePack

fifa19

RePack

Assassins Creed: Odyssey

RePack

NEED FOR SPEED™ PAYBACK

3 сезон

9 сезон

Бесстыжие 9 сезон

Все сериалы

все сериалы на PB.wtf

RePack

FAR CRY 5
Ребята, катастрофически не хватает 2730р. для оплаты серверов за ИЮНЬ (всвязи с блокировками трафик упал в 3 раза), 1-2р., выручайте.
  

Жандарм женится / The Gendarme Gets Married / Le gendarme se marie (Жан Жиро / Jean Girault) [1968, Франция, Италия, комедия, HDRip] 3XMVO piratbit.cc

Жандарм женится через торрент piratbit.cc

Размер: 1.44 GB | Добавлен: 6 лет 1 мес. назад | Торрент скачан:98 раз
Скачать  

28-05-2013 05:44 Жандарм женится Скачать торрент  

Жандарм женится / The Gendarme Gets Married / Le gendarme se marie
Год выпуска: 1968
Страна: Франция, Италия
Жанр: комедия
Продолжительность: 01:29:18
Перевод: Профессиональный (многоголосый закадровый) РЕН-ТВ + Профессиональный (многоголосый закадровый) ОРТ + Профессиональный (многоголосый закадровый) НТВ+

Cубтитры: нет

Режиссер: Жан Жиро / Jean Girault

В ролях: Луи де Фюнес, Жан Лефевр, Женевьев Град, Кристиан Марен, Ив Венсан, Ги Гроссо, Мишель Модо, Маурицио Бонулья, Марио Давид, Клоди Жансак, Мишель Галабрю, Жан-Пьер Бертран

Описание: Пробил долгожданный «Час Икс». На календаре у старшины жандармов первое июля, а это значит, что во Франции настало время всеобщих отпусков.
Толпы обезумевших от жажды развлечений туристов ринулись к морю, и наши старые знакомые — блюстители порядка из курортного Сен-Тропе — должны во что бы то ни стало, любой ценой сдержать бурный натиск отдыхающих.
И вот, за отчаянно-быструю езду по горным дорогам Крюшо арестовывает очаровательную Жозефу, которая оказывается вдовой полковника жандармерии.

Качество: HDRip
Формат: AVI
Видео кодек: XviD
Аудио кодек: AC3
Видео: 720x304 (2.37:1), 24.000 fps, XviD build 50 ~1710 kbps avg, 0.33 bit/pixel
Аудио #1: 48 kHz, AC3 Dolby Digital, 2/0 (L,R) Surround Encoded ch, ~192 kbps | MVO РЕН-ТВ
Аудио #2: 48 kHz, AC3 Dolby Digital, 2/0 (L,R) Surround Encoded ch, ~192 kbps | MVO НТВ+
Аудио #3: 48 kHz, AC3 Dolby Digital, 2/0 (L,R) Surround Encoded ch, ~192 kbps | MVO ОРТ
Раздача от:
D:Le.gendarme.se.marie.1968.HDRip.3xMVO.[YTN]_by_dexter_lex.avi
General
Complete name : D:Le.gendarme.se.marie.1968.HDRip.3xMVO.[YTN]_by_dexter_lex.avi
Format : AVI
Format/Info : Audio Video Interleave
File size : 1.44 GiB
Duration : 1h 29mn
Overall bit rate : 2 304 Kbps
Writing application : VirtualDubMod 1.5.10.3 | www.virtualdub-fr.org || (build 2550/release)
Writing library : VirtualDubMod build 2550/release
Video #0
ID : 0
Format : MPEG-4 Visual
Format profile : Advanced Simple@L5
Format settings, BVOP : 1
Format settings, QPel : No
Format settings, GMC : No warppoints
Format settings, Matrix : Custom
Codec ID : XVID
Codec ID/Hint : XviD
Duration : 1h 29mn
Bit rate : 1 710 Kbps
Width : 720 pixels
Height : 304 pixels
Display aspect ratio : 2.37:1
Frame rate : 24.000 fps
Color space : YUV
Chroma subsampling : 4:2:0
Bit depth : 8 bits
Scan type : Progressive
Compression mode : Lossy
Bits/(Pixel*Frame) : 0.325
Stream size : 1.07 GiB (74%)
Writing library : XviD 1.2.1 (UTC 2008-12-04)
Audio #1
ID : 1
Format : AC-3
Format/Info : Audio Coding 3
Format profile : Dolby Digital
Mode extension : CM (complete main)
Format settings, Endianness : Big
Codec ID : 2000
Duration : 1h 29mn
Bit rate mode : Constant
Bit rate : 192 Kbps
Channel(s) : 2 channels
Channel positions : Front: L R
Sampling rate : 48.0 KHz
Bit depth : 16 bits
Compression mode : Lossy
Stream size : 123 MiB (8%)
Alignment : Split accross interleaves
Interleave, duration : 42 ms (1.00 video frame)
Interleave, preload duration : 500 ms
Audio #2
ID : 2
Format : AC-3
Format/Info : Audio Coding 3
Format profile : Dolby Digital
Mode extension : CM (complete main)
Format settings, Endianness : Big
Codec ID : 2000
Duration : 1h 29mn
Bit rate mode : Constant
Bit rate : 192 Kbps
Channel(s) : 2 channels
Channel positions : Front: L R
Sampling rate : 48.0 KHz
Bit depth : 16 bits
Compression mode : Lossy
Stream size : 123 MiB (8%)
Alignment : Split accross interleaves
Interleave, duration : 42 ms (1.00 video frame)
Interleave, preload duration : 500 ms
Audio #3
ID : 3
Format : AC-3
Format/Info : Audio Coding 3
Format profile : Dolby Digital
Mode extension : CM (complete main)
Format settings, Endianness : Big
Codec ID : 2000
Duration : 1h 29mn
Bit rate mode : Constant
Bit rate : 192 Kbps
Channel(s) : 2 channels
Channel positions : Front: L R
Sampling rate : 48.0 KHz
Bit depth : 16 bits
Compression mode : Lossy
Stream size : 123 MiB (8%)
Alignment : Split accross interleaves
Interleave, duration : 42 ms (1.00 video frame)
Interleave, preload duration : 500 ms
piratbit.cc



Скачать Жандарм женится через торрент http://i47.fastpic.ru/big/2013/0527/70/bc9349d77f367c3aa369deb4ab1c4f70.png Скачать фильм Жандарм женится через торрент бесплантно в хорошем качестве Описание: Пробил долгожданный «Час Икс». На календаре у старшины жандармов первое июля, а это значит, что во Франции настало время всеобщих ... 10 10 7
Info! Золотая раздача, скачанное не засчитывается.
Торрент: Зарегистрирован [2013-05-28 05:44] · скачан: 98 раз
Статус: √ проверено
Размер: 1.44 GB
Как cкачать? Как скачать Жандарм женится через торрент | qTorrent


>> Регистрируемся здесь <<






Отзывы и комментарии о схеме читаем и пишем здесь: ---> Отзывы и комментарии о схеме

Новые благодарочки в телеграм довольных пользователей:
скриншот   скриншот   скриншот   скриншот   скриншот
    Дорогой пользователь! Огромная просьба, поблагодарите релизера, оцените раздачу и оставьте свои комментарий, если Вы скачали Жандарм женится через торрент бесплатно! Внесите свою лепту в развитие PiratBit!
    Комментировать посты могут только пользователи прошедшие не сложную регистрацию
    Показать сообщения:    

    Жандарм женится через торрент
    Скачать бесплатно Жандарм женится
    Жандарм женится скачать торрент
    Жандарм женится смотреть онлайн
    Cкачать фильм Жандарм женится бесплатно
    Жандарм женится скачать торрент в хорошем качестве
    Жандарм женится смотреть онлайн бесплатно в хорошем качестве


    Вы не можете начинать темы
    Вы не можете отвечать на сообщения
    Вы не можете редактировать свои сообщения
    Вы не можете удалять свои сообщения
    Вы не можете голосовать в опросах
    Вы не можете прикреплять файлы к сообщениям
    Вы можете скачивать файлы