Лицензия

30

iTunes

Как приручить дракона 3

11 сезон

1

1 сезон

гринч

iTunes

Стекло

iTunes

Клаустрофобы

8 сезон

Игра престолов

iTunes

Ральф против интернета Хит недели

ИГРА 18+

pack

ВАЖНО

!!Акция!!

Alien_RageХит недели

RePack

Resident Evil 21
pack

RePack

Metro:Exodus

!!Акция!!

Alien_Rage

RePack

fifa19

RePack

Assassins Creed: Odyssey

RePack

NEED FOR SPEED™ PAYBACK

3 сезон

9 сезон

Бесстыжие 9 сезон

Все сериалы

все сериалы на PB.wtf

RePack

FAR CRY 5
Ребята, критически не успеваем дособрать 3200р. для оплаты серверов за Март (всвязи с блокировками трафик упал в 3 раза), 1-2р., выручайте.
  

Вовочка (Игорь Мужжухин) [2002 г., Комедия, семейный, DVDRip] piratbit.cc

Вовочка через торрент piratbit.cc

Размер: 1.46 GB | Добавлен: 5 лет 9 мес. назад | Торрент скачан:140 раз
Скачать  

27-06-2013 18:28 Вовочка Скачать торрент  

Вовочка
Год выпуска: 2002
Страна: Россия
Жанр: Комедия, семейный,
Продолжительность: 01:35:54

Режиссер: Игорь Мужжухин
Продюссер: Сергей Жигунов
Сценарий: Игорь Мужжухин

IMDB 5.60 (43)


В ролях: Алексей Гуськов, Никита Каракозов, Вера Новикова, Михаил Пореченков, Юрий Шевчук, Николай Сорокин, Виктор Степанов, Инна Ульянова, Максим Емельянов, Маша Жигунова,

Описание: Вовочка — не герой анекдотов, Вовочка — реальный 10-летний мальчишка, непосредственный и неугомонный, выдумщик и озорник, который невольно доставляет взрослым массу хлопот. С приездом Вовочки в канун Новогодних праздников на дачу, жизнь тихого подмосковного поселка взрывается в прямом и переносном смысле...

Качество: DVDRip
Формат: AVI
Видео кодек: XviD
Аудио кодек: AC3
Видео: 704x448 (1.57:1), 25 fps, XviD build 50 ~1780 kbps avg, 0.23 bit/pixel
Аудио#1: 48 kHz, AC3 Dolby Digital, 3/2 (L,C,R,l,r) + LFE ch, ~384 kbps

Общее
Полное имя : F:ЗакачкиVovochka.2002.DVDRip.avi
Формат : AVI
Формат/Информация : Audio Video Interleave
Размер файла : 1,46 Гбайт
Продолжительность : 1 ч. 35 м.
Общий поток : 2175 Кбит/сек
Программа кодирования : VirtualDubMod 1.5.10.3 | www.virtualdub-fr.org || (build 2550/release)
Библиотека кодирования : VirtualDubMod build 2550/release

Видео
Идентификатор : 0
Формат : MPEG-4 Visual
Профиль формата : Advanced Simple@L5
Параметр BVOP формата : 2
Параметр QPel формата : Нет
Параметр GMC формата : Без точки перехода
Параметр матрицы формата : Default (H.263)
Идентификатор кодека : XVID
Идентификатор кодека/Подсказка : XviD
Продолжительность : 1 ч. 35 м.
Битрейт : 1781 Кбит/сек
Ширина : 704 пикселя
Высота : 448 пикселей
Соотношение сторон : 1,571
Частота кадров : 25,000 кадров/сек
Цветовое пространство : YUV
Субдискретизация насыщенности : 4:2:0
Битовая глубина : 8 бит
Тип развёртки : Прогрессивная
Метод сжатия : С потерями
Бит/(Пиксели*Кадры) : 0.226
Размер потока : 1,19 Гбайт (82%)
Библиотека кодирования : XviD 1.2.1 (UTC 2008-12-04)

Аудио
Идентификатор : 1
Формат : AC-3
Формат/Информация : Audio Coding 3
Расширение режима : CM (complete main)
Параметр Endianness формата : Big
Идентификатор кодека : 2000
Продолжительность : 1 ч. 35 м.
Вид битрейта : Постоянный
Битрейт : 384 Кбит/сек
Каналы : 6 каналов
Расположение каналов : Front: L C R, Side: L R, LFE
Частота : 48,0 КГц
Битовая глубина : 16 бит
Метод сжатия : С потерями
Размер потока : 263 Мбайт (18%)
Выравнивание : Разделение по промежуткам
Продолжительность промежутка : 40 мс. (1,00 видеокадр)
Время предзагрузки промежутка : 500 мс.


Вовочка скачать торрент


piratbit.cc



Скачать Вовочка через торрент http://pic.kartinco.top/images/3/dob53jn8mc.jpg Скачать фильм Вовочка через торрент бесплантно в хорошем качестве Описание: Вовочка — не герой анекдотов, Вовочка — реальный 10-летний мальчишка, непосредственный и неугомонный, выдумщик и озорник, который ... 8 10 11
Info! Золотая раздача, скачанное не засчитывается.
Торрент: Зарегистрирован [2013-06-27 18:28] · скачан: 140 раз
Статус: √ проверено
Размер: 1.46 GB
Как cкачать? Как скачать Вовочка через торрент | qTorrent

% Раздел Тема Автор DL S | L
Русские порно фильмы [ 2.19 GB ] Татушки: Нежный возраст [2006 Gonzo. DVD9] Pir@tya2010 Скачать
1 | 0
Русские порно фильмы [ 1.47 GB ] Свингеры [2005 Gonzo Swingers. DVDRip] Pir@tya2010 Скачать
1 | 0
Русские порно фильмы [ 1.37 GB ] Моя Свинья [2006 Feature. DVDRip] Pir@tya2010 Скачать
1 | 0
Наши фильмы, до 2010 [ 1.37 GB ] Вовочка [2002 DVDRip] IgorAlena Скачать
1 | 0
Русские порно фильмы [ 1.41 GB ] Татушки [2008 RU сексаналоралдвойное проникновение DVDRip] Shmel Скачать
1 | 0


>> Регистрируемся здесь <<






Отзывы и комментарии о схеме читаем и пишем здесь: ---> Отзывы и комментарии о схеме

Новые благодарочки в телеграм довольных пользователей:
скриншот   скриншот   скриншот   скриншот   скриншот

28-06-2013 10:39 Вовочка Скачать торрент  

Юрий Шевчук - это пять!!!
а фильм - это два!!!piratbit.cc



    Дорогой пользователь! Огромная просьба, поблагодарите релизера, оцените раздачу и оставьте свои комментарий, если Вы скачали Вовочка через торрент бесплатно! Внесите свою лепту в развитие PiratBit!
    Комментировать посты могут только пользователи прошедшие не сложную регистрацию
    Показать сообщения:    

    Вовочка через торрент
    Скачать бесплатно Вовочка
    Вовочка скачать торрент
    Вовочка смотреть онлайн
    Cкачать фильм Вовочка бесплатно
    Вовочка скачать торрент в хорошем качестве
    Вовочка смотреть онлайн бесплатно в хорошем качестве


    Вы не можете начинать темы
    Вы не можете отвечать на сообщения
    Вы не можете редактировать свои сообщения
    Вы не можете удалять свои сообщения
    Вы не можете голосовать в опросах
    Вы не можете прикреплять файлы к сообщениям
    Вы можете скачивать файлы