iTunes

1+1

iTunes

мы

iTunes

1

1 сезон

Чернобыль

1 сезон

Ральф против интернета

Лицензия

ПШазам

8 сезон

Игра престолов

Лицензия

30
pack

ВАЖНО

!!Акция!!

Alien_RageХит недели

RePack

Resident Evil 21

ИГРА 18+

pack

RePack

Metro:Exodus

!!Акция!!

Alien_Rage

RePack

fifa19

RePack

Assassins Creed: Odyssey

RePack

NEED FOR SPEED™ PAYBACK

3 сезон

9 сезон

Бесстыжие 9 сезон

Все сериалы

все сериалы на PB.wtf

RePack

FAR CRY 5
Ребята, катастрофически не хватает 2730р. для оплаты серверов за ИЮНЬ (всвязи с блокировками трафик упал в 3 раза), 1-2р., выручайте.
  

Ле ман / Le Mans (Ли Х. Кацин / Lee H. Katzin) [1971, боевик, приключения, спорт, BDRip] [VO] (Film Prestige) piratbit.cc

Ле ман через торрент piratbit.cc

Размер: 1.42 GB | Добавлен: 5 лет 11 мес. назад | Торрент скачан:60 раз
Скачать  

29-07-2013 17:03 Ле ман Скачать торрент  

Ле ман / Le Mans
Год выпуска: 1971
Страна: США
Жанр: боевик, приключения, спорт
Продолжительность: 01:48:41
Перевод: Профессиональный (одноголосый закадровый) [Film Prestige]
Cубтитры: нет

Режиссер: Ли Х. Кацин / Lee H. Katzin

В ролях: Стив МакКуин, Зигфрид Ройч, Эльга Андерсен, Рональд Ли-Хант, Люк Меренда, Кристофер Вейт, Анджело Инфанти

Описание: За «золото» Ле Мана сражаются немец Шталер на Ferrari и действующий чемпион - американец Майкл Делани на Gulf Porsche. 24-часовой марафон требует максимальной концентрации и всегда проходит на пике нервного напряжения.
А на этот раз Делани нервничает вдвойне: год назад по его вине на этой же трассе произошла серьезная авария, в которой погиб его друг Белгетти, пилот Ferrari. Перед началом гонки у Майкла был непростой разговор с Лизой, вдовой Белгетти... И теперь чемпион не может отделаться от странного предчувствия...




Качество видео: BDRip
Формат видео: AVI
Видео кодек: XviD
Аудио кодек: AC3
Видео: 720*304 (2.37), 23.976 fps, XviD MPEG-4, ~1469 kbps, 0.29 bit/pixel
Аудио: 48 kHz, AC3 Dolby Digital, 6 ch, ~384 kbps [Film Prestige]
General
Complete name : Le_Mans.avi
Format : AVI
Format/Info : Audio Video Interleave
File size : 1.42 GiB
Duration : 1h 48mn
Overall bit rate : 1 868 Kbps
Writing application : VirtualDubMod 1.5.10.2 (build 2540/release)
Writing library : VirtualDubMod build 2540/release
Video
ID : 0
Format : MPEG-4 Visual
Format profile : Advanced Simple@L5
Format settings, BVOP : 2
Format settings, QPel : No
Format settings, GMC : No warppoints
Format settings, Matrix : Default (H.263)
Muxing mode : Packed bitstream
Codec ID : XVID
Codec ID/Hint : XviD
Duration : 1h 48mn
Bit rate : 1 475 Kbps
Width : 720 pixels
Height : 304 pixels
Display aspect ratio : 2.35:1
Frame rate : 23.976 fps
Color space : YUV
Chroma subsampling : 4:2:0
Bit depth : 8 bits
Scan type : Progressive
Compression mode : Lossy
Bits/(Pixel*Frame) : 0.281
Stream size : 1.12 GiB (79%)
Writing library : XviD 1.2.1 (UTC 2008-12-04)
Audio
ID : 1
Format : AC-3
Format/Info : Audio Coding 3
Mode extension : CM (complete main)
Codec ID : 2000
Duration : 1h 48mn
Bit rate mode : Constant
Bit rate : 384 Kbps
Channel(s) : 6 channels
Channel positions : Front: L C R, Side: L R, LFE
Sampling rate : 48.0 KHz
Bit depth : 16 bits
Compression mode : Lossy
Stream size : 299 MiB (21%)
Alignment : Split accross interleaves
Interleave, duration : 42 ms (1.00 video frame)
Interleave, preload duration : 500 ms
piratbit.cc



Скачать Ле ман через торрент http://s006.radikal.ru/i214/1307/bd/c566ec16f1b0.jpg Скачать фильм Ле ман через торрент бесплантно в хорошем качестве Описание: За «золото» Ле Мана сражаются немец Шталер на Ferrari и действующий чемпион - американец Майкл Делани на Gulf Porsche. 24-часовой ... 9 10 9
Info! Золотая раздача, скачанное не засчитывается.
Торрент: Зарегистрирован [2013-07-29 17:03] · скачан: 60 раз
Статус: √ проверено
Размер: 1.42 GB
Как cкачать? Как скачать Ле ман через торрент | qTorrent

% Раздел Тема Автор DL S | L
Фильмы до 2000 г. [ 3.24 GB ] Ле Ман / Le Mans [1971 BDRip-AVC] VO koenig Скачать
1 | 0
Фильмы 2009 [ 2.2 GB ] Приходит женщина к врачу / Komt een vrouw bij de dokter [2009 Нидерланды BDRip + Любительский KEYS Скачать
1 | 0
Автоспорт [ 10.92 GB ] Патрик Демпси в гонке Ле-Мана / 1 сезон: 1-4 серии из 4 / Patrick Dempsey Racing Le Mans [2013 Документальный HDTVRip 720p многоголосый] кэп Скачать
1 | 0
Фильмы 2009 [ 1.46 GB ] Приходит женщина к врачу HDRip / Komt een vrouw bij de dokter [2009 HDRip] lyokaa Скачать
1 | 0


>> Регистрируемся здесь <<






Отзывы и комментарии о схеме читаем и пишем здесь: ---> Отзывы и комментарии о схеме

Новые благодарочки в телеграм довольных пользователей:
скриншот   скриншот   скриншот   скриншот   скриншот

29-07-2013 17:46 Ле ман Скачать торрент  

классный фильм о автогонках это Вам не детский форсаж piratbit.cc



    Дорогой пользователь! Огромная просьба, поблагодарите релизера, оцените раздачу и оставьте свои комментарий, если Вы скачали Ле ман через торрент бесплатно! Внесите свою лепту в развитие PiratBit!
    Комментировать посты могут только пользователи прошедшие не сложную регистрацию
    Показать сообщения:    

    Ле ман через торрент
    Скачать бесплатно Ле ман
    Ле ман скачать торрент
    Ле ман смотреть онлайн
    Cкачать фильм Ле ман бесплатно
    Ле ман скачать торрент в хорошем качестве
    Ле ман смотреть онлайн бесплатно в хорошем качестве


    Вы не можете начинать темы
    Вы не можете отвечать на сообщения
    Вы не можете редактировать свои сообщения
    Вы не можете удалять свои сообщения
    Вы не можете голосовать в опросах
    Вы не можете прикреплять файлы к сообщениям
    Вы можете скачивать файлы