Лицензия

30

iTunes

мы

iTunes

1

1 сезон

Чернобыль

iTunes

1+1

iTunes

Закатать в асфальт

8 сезон

Игра престолов

1 сезон

Ральф против интернета

ИГРА 18+

pack

ВАЖНО

!!Акция!!

Alien_RageХит недели

RePack

Resident Evil 21
pack

RePack

Metro:Exodus

!!Акция!!

Alien_Rage

RePack

fifa19

RePack

Assassins Creed: Odyssey

RePack

NEED FOR SPEED™ PAYBACK

3 сезон

9 сезон

Бесстыжие 9 сезон

Все сериалы

все сериалы на PB.wtf

RePack

FAR CRY 5
Ребята, катастрофически не хватает 2730р. для оплаты серверов за АПРЕЛЬ (всвязи с блокировками трафик упал в 3 раза), 1-2р., выручайте.
  

Книга мастеров / Kniga masterov (Вадим Соколовский) [2009 г., фэнтези, семейный, BDRip] piratbit.cc

Книга мастеров через торрент piratbit.cc

Размер: 1.46 GB | Добавлен: 5 лет 8 мес. назад | Торрент скачан:269 раз
Скачать  

18-09-2013 16:13 Книга мастеров Скачать торрент  

Книга мастеров

«Первый российский фильм Disney»

  • Год выпуска:2009
  • Страна:Россия
  • Жанр:фэнтези, семейный

  • Продолжительность: 01:41:12
  • Перевод:Не требуется

  • Субтитры: Нет
    • Режиссер:Вадим Соколовский
    • Сценарий: Вадим Соколовский, Анна Старобинец
    • Продюсер: Марина Жигалова-Озкан

  • В ролях:Мария Андреева (Катя), Максим Локтионов (Иван), Леонид Куравлёв (барин), Валентин Гафт (говорящее зеркало), Ольга Аросева (сказительница, озвучка), Александр Леньков (Мастер), Ирина Апексимова (Каменная Княжна), Михаил Ефремов (богатырь), Гоша Куценко (Кащей Бессмертный), Артур Смольянинов (Каменный Воин), Лия Ахеджакова (Баба Яга), Николай Ефремов (Кузьма)
    • Описание:
      Миру грозит опасность. Скоро исполнится древнее пророчество и заточенная в башне Каменная Княжна вырвется на свободу, чтобы с помощью своих злых чар обрести Влacть над миром. Волею случая, судьбы людей оказываются в руках Ивана, которому предстоит пройти через множество испытаний. В его силах наделить Княжну волшебной властью и сделать владычицей земною, но он может и одолеть её, чтобы спасти свою возлюбленную Катю. На пути к цели Ивана подстерегает множество опасностей и приключений, его ждут встречи с героями русских сказок - Бабой Ягой, Русалкой, Кощеем Бессмертным и многими другими.

  • Рейтинг
    kinopoisk.ru: 4.539 (18 901)
    imdb.com: 4.30 (464)

      Автор рипа: : KalliostroV

    • Качество:BDRip(источник: muzvoz / BluRay / 1080p)
    • Формат:AVI
    • Видео кодек: XviD
    • Аудио кодек:AC3
    • Видео: XviD, 720x304 (2.35:1), 1670 kbps, 23,976 fps, 0,318 bpp
    • Аудио: AC3 / 5.1 / 48 kHz / 384 kbps / 16 bit

    General
    Complete name : D:ТорентыKniga.masterov.2009.RUS..BDRip.XviD.AC3.-HQCLUB.avi
    Format : AVI
    Format/Info : Audio Video Interleave
    File size : 1.46 GiB
    Duration : 1h 41mn
    Overall bit rate : 2 064 Kbps
    Movie name : Kniga masterov (2009) BDRip
    Director : KalliostroV
    Writing application : VirtualDubModRus 1.5.10.2 (build 2542/release)

    Comment : 05.12.2009

    Video
    ID : 0
    Format : MPEG-4 Visual
    Format profile : Advanced Simple@L5
    Format settings, BVOP : 1
    Format settings, QPel : No
    Format settings, GMC : No warppoints
    Format settings, Matrix : Custom
    Codec ID : XVID
    Codec ID/Hint : XviD
    Duration : 1h 41mn
    Bit rate : 1 671 Kbps
    Width : 720 pixels
    Height : 304 pixels
    Display aspect ratio : 2.35:1
    Frame rate : 23.976 fps
    Color space : YUV
    Chroma subsampling : 4:2:0
    Bit depth : 8 bits
    Scan type : Progressive
    Compression mode : Lossy
    Bits/(Pixel*Frame) : 0.318
    Stream size : 1.18 GiB (81%)
    Writing library : XviD 1.2.1 (UTC 2008-12-04)

    Audio
    ID : 1
    Format : AC-3
    Format/Info : Audio Coding 3
    Mode extension : CM (complete main)
    Codec ID : 2000
    Duration : 1h 41mn
    Bit rate mode : Constant
    Bit rate : 384 Kbps
    Channel(s) : 6 channels
    Channel positions : Front: L C R, Side: L R, LFE
    Sampling rate : 48.0 KHz
    Bit depth : 16 bits
    Compression mode : Lossy
    Stream size : 278 MiB (19%)
    Alignment : Split accross interleaves
    Interleave, duration : 42 ms (1.00 video frame)
    Interleave, preload duration : 500 ms

    • Первый съёмочный день фильма совпал с днём рождения исполнителя главной роли Максима Локтионова.
    • Фильм стал первой работой студии Disney, снятой на территории России.
    • Сценарий был написан по мотивам русских народных сказок.
    • Избушку Бабы Яги специально для съемок построили на территории Белорусского государственного музея народной архитектуры и быта.
    • Съемки проходили под Минском и в павильонах киноконцерна «Мосфильм».
    • еще 2 факта

    © Оформление by Vetalpiratbit.cc



  • Скачать Книга мастеров через торрент http://pic.kartinco.top/images/4/8txui.jpg Скачать фильм Книга мастеров через торрент бесплантно в хорошем качестве Описание:Миру грозит опасность. Скоро исполнится древнее пророчество и заточенная в башне Каменная Княжна вырвется на свободу, чтобы с ... 9 10 9
    Info! Золотая раздача, скачанное не засчитывается.
    Торрент: Зарегистрирован [2013-09-18 16:13] · скачан: 269 раз
    Статус: √ проверено
    Размер: 1.46 GB
    Как cкачать? Как скачать Книга мастеров через торрент | qTorrent

    % Раздел Тема Автор DL S | L
    Наши фильмы (HD, WEB-DL 720p, 1080p) [ 4.36 GB ] Книга мастеров / Kniga masterov [2009 BDRip] sergofans Скачать
    1 | 0


    >> Регистрируемся здесь <<






    Отзывы и комментарии о схеме читаем и пишем здесь: ---> Отзывы и комментарии о схеме

    Новые благодарочки в телеграм довольных пользователей:
    скриншот   скриншот   скриншот   скриншот   скриншот
      Дорогой пользователь! Огромная просьба, поблагодарите релизера, оцените раздачу и оставьте свои комментарий, если Вы скачали Книга мастеров через торрент бесплатно! Внесите свою лепту в развитие PiratBit!
      Комментировать посты могут только пользователи прошедшие не сложную регистрацию
      Показать сообщения:    

      Книга мастеров через торрент
      Скачать бесплатно Книга мастеров
      Книга мастеров скачать торрент
      Книга мастеров смотреть онлайн
      Cкачать фильм Книга мастеров бесплатно
      Книга мастеров скачать торрент в хорошем качестве
      Книга мастеров смотреть онлайн бесплатно в хорошем качестве


      Вы не можете начинать темы
      Вы не можете отвечать на сообщения
      Вы не можете редактировать свои сообщения
      Вы не можете удалять свои сообщения
      Вы не можете голосовать в опросах
      Вы не можете прикреплять файлы к сообщениям
      Вы можете скачивать файлы