iTunes

1+1

iTunes

мы

iTunes

1

1 сезон

Чернобыль

1 сезон

Ральф против интернета

Лицензия

ПШазам

8 сезон

Игра престолов

Лицензия

30
pack

ВАЖНО

!!Акция!!

Alien_RageХит недели

RePack

Resident Evil 21

ИГРА 18+

pack

RePack

Metro:Exodus

!!Акция!!

Alien_Rage

RePack

fifa19

RePack

Assassins Creed: Odyssey

RePack

NEED FOR SPEED™ PAYBACK

3 сезон

9 сезон

Бесстыжие 9 сезон

Все сериалы

все сериалы на PB.wtf

RePack

FAR CRY 5
Ребята, катастрофически не хватает 2730р. для оплаты серверов за ИЮНЬ (всвязи с блокировками трафик упал в 3 раза), 1-2р., выручайте.
  

Татуированный / The Tattooed One / Le tatoué (Дени де Ла Пательер / Denys de La Patellière) [1968, Франция, Италия, комедия, HDRip] MVO piratbit.cc

Татуированный через торрент piratbit.cc

Размер: 745 MB | Добавлен: 5 лет 9 мес. назад | Торрент скачан:55 раз
Скачать  

26-09-2013 06:44 Татуированный Скачать торрент  

Татуированный / The Tattooed One / Le tatoué
Страна: Франция, Италия
Жанр: комедия
Год выпуска: 1968
Продолжительность: 01:30:04

Перевод: Профессиональный (многоголосый закадровый) Film Prestige
Cубтитры: нет
Оригинальная аудиодорожка: нет

Режиссер: Дени де Ла Пательер / Denys de La Patellière

В ролях: Луи де Фюнес, Жан Габен, Поль Мерси, Ив Барсак, Пьер Торнад, Жан-Пьер Даррас, Джо Уорфилд, Дональд Дж. фон Кертц, Лин Шардонне, Ибрахим Сек

Описание: Шустрый и нечистоплотный торговец антиквариатом Фелисьен Мезере случайно видит на широкой спине позирующего художнику пожилого человека необычную татуировку. Опытный глаз пройдохи сразу определяет руку мастера — и действительно, этот рисунок когда-то сделал майору Леграну великий Модильяни.

Фелисьен незамедлительно предлагает Леграну продать кожу со спины за любые деньги, но тот с возмущением отвергает абсурдное предложение. Но обезумевший от жадности антиквар готов на все, лишь бы заполучить в свои руки бесценный шедевр и продать его втридорога. Легран в конце концов соглашается, но в обмен на небольшую услугу. Фелисьен не раздумывая соглашается, и они отправляются в необычное путешествие…


Качество видео: HDRip [Le.Tatoue.1968.720p.WEB-DL.3xRus.Fre.Sub.HDCLUB]
Формат видео: AVI
Видео кодек: XviD
Аудио кодек: MP3
Видео: 688x288 (2.39:1), 24.000 fps, XviD build 73 ~1018 kbps avg, 0.21 bit/pixel
Аудио: 48 kHz, MPEG Layer 3, 2 ch, ~128.00 kbps avg
Раздача от:
D:Мои рипыLe.Tatoue.1968.HDRip.745mb.dexter_lex.avi
General
Complete name : D:Мои рипыLe.Tatoue.1968.HDRip.745mb.dexter_lex.avi
Format : AVI
Format/Info : Audio Video Interleave
File size : 745 MiB
Duration : 1h 30mn
Overall bit rate : 1 156 Kbps
Writing application : VirtualDubMod 1.5.10.3 | www.virtualdub-fr.org || (build 2550/release)
Writing library : VirtualDubMod build 2550/release
Video #0
ID : 0
Format : MPEG-4 Visual
Format profile : Advanced Simple@L5
Format settings, BVOP : 1
Format settings, QPel : No
Format settings, GMC : No warppoints
Format settings, Matrix : Custom
Codec ID : XVID
Codec ID/Hint : XviD
Duration : 1h 30mn
Bit rate : 1 019 Kbps
Width : 688 pixels
Height : 288 pixels
Display aspect ratio : 2.40:1
Frame rate : 24.000 fps
Color space : YUV
Chroma subsampling : 4:2:0
Bit depth : 8 bits
Scan type : Progressive
Compression mode : Lossy
Bits/(Pixel*Frame) : 0.214
Stream size : 656 MiB (88%)
Writing library : XviD 73
Audio #1
ID : 1
Format : MPEG Audio
Format version : Version 1
Format profile : Layer 3
Codec ID : 55
Codec ID/Hint : MP3
Duration : 1h 30mn
Bit rate mode : Constant
Bit rate : 128 Kbps
Channel(s) : 2 channels
Sampling rate : 48.0 KHz
Compression mode : Lossy
Stream size : 82.5 MiB (11%)
Alignment : Aligned on interleaves
Interleave, duration : 42 ms (1.00 video frame)
Interleave, preload duration : 504 ms
Writing library : LAME3.99r
Encoding settings : -m s -V 4 -q 2 -lowpass 17 -b 128
piratbit.cc



Скачать Татуированный через торрент http://i59.fastpic.ru/big/2013/0925/16/b12a6f36b2722f7cca8f083917c98916.jpg Скачать фильм Татуированный через торрент бесплантно в хорошем качестве Описание: Шустрый и нечистоплотный торговец антиквариатом Фелисьен Мезере случайно видит на широкой спине позирующего художнику пожилого ... 9.3 10 4
Info! Золотая раздача, скачанное не засчитывается.
Торрент: Зарегистрирован [2013-09-26 06:44] · скачан: 55 раз
Статус: √ проверено
Размер: 745 MB
Как cкачать? Как скачать Татуированный через торрент | qTorrent

% Раздел Тема Автор DL S | L
Фильмы (WEB-DL 720p, 1080p) [ 3.13 GB ] Татуированный / The Tattooed One / Le tatoué [1968 Италия WEB-DL 720p] MVO + MVO + MVO + Sub Rus + Original Fre dexter lex Скачать
1 | 0
Классика зарубежного кино [ 1.47 GB ] Татуированный / The Tattooed One / Le tatoué [1968 Италия HDRip] 3XMVO dexter lex Скачать
1 | 0


>> Регистрируемся здесь <<






Отзывы и комментарии о схеме читаем и пишем здесь: ---> Отзывы и комментарии о схеме

Новые благодарочки в телеграм довольных пользователей:
скриншот   скриншот   скриншот   скриншот   скриншот
    Дорогой пользователь! Огромная просьба, поблагодарите релизера, оцените раздачу и оставьте свои комментарий, если Вы скачали Татуированный через торрент бесплатно! Внесите свою лепту в развитие PiratBit!
    Комментировать посты могут только пользователи прошедшие не сложную регистрацию
    Показать сообщения:    

    Татуированный через торрент
    Скачать бесплатно Татуированный
    Татуированный скачать торрент
    Татуированный смотреть онлайн
    Cкачать фильм Татуированный бесплатно
    Татуированный скачать торрент в хорошем качестве
    Татуированный смотреть онлайн бесплатно в хорошем качестве


    Вы не можете начинать темы
    Вы не можете отвечать на сообщения
    Вы не можете редактировать свои сообщения
    Вы не можете удалять свои сообщения
    Вы не можете голосовать в опросах
    Вы не можете прикреплять файлы к сообщениям
    Вы можете скачивать файлы