Лицензия

30

iTunes

мы

iTunes

1

1 сезон

Чернобыль

1 сезон

Ральф против интернета

MVO

Покемон. Детектив Пикачу

8 сезон

Игра престолов

iTunes

1+1

ИГРА 18+

pack

ВАЖНО

!!Акция!!

Alien_RageХит недели

RePack

Resident Evil 21
pack

RePack

Metro:Exodus

!!Акция!!

Alien_Rage

RePack

fifa19

RePack

Assassins Creed: Odyssey

RePack

NEED FOR SPEED™ PAYBACK

3 сезон

9 сезон

Бесстыжие 9 сезон

Все сериалы

все сериалы на PB.wtf

RePack

FAR CRY 5
Ребята, катастрофически не хватает 2730р. для оплаты серверов за МАЙ (всвязи с блокировками трафик упал в 3 раза), 1-2р., выручайте.
  

Ворошиловский стрелок (Станислав Говорухин) [1999 г., драма, криминал, DVDRip] piratbit.cc

Ворошиловский стрелок через торрент piratbit.cc

Размер: 1.37 GB | Добавлен: 5 лет 8 мес. назад | Торрент скачан:100 раз
Скачать  

16-10-2013 11:16 Ворошиловский стрелок Скачать торрент  

Ворошиловский стрелок«Не ради мести, а во имя справедливости...»
Год выпуска: 1999
Страна: Россия
Жанр: драма, криминал,
Продолжительность: 01:34:39
Субтитры: нет

Режиссер: Станислав Говорухин
Продюссер: Евгений Голынский, Игорь Толстунов, Сергей Козлов
Сценарий: Александр Бородянский, Станислав Говорухин, Юрий Поляков

Премьера в мире: 14 февраля 2000





В ролях: Михаил Ульянов, Анна Синякина, Алексей Макаров, Марат Башаров, Илья Древнов, Александр Пороховщиков, Владислав Галкин, Сергей Гармаш, Ирина Розанова, Георгий Мартиросьян...

Роли дублировали: Александр Рыжков,

Описание: Пенсионер, железнодорожник в отставке, скромно живёт со своей внучкой Катей. В соседнем доме постоянно собираются трое молодых бездельников, чувствующие себя безнаказанными хозяевами жизни. Однажды они хитростью заманили Катю к себе, где изнасиловали.
Поначалу насильников арестовывают, однако отец одного из них — большой милицейский начальник — освобождает их. После безуспешных попыток наказать преступников законным путём, Иван Фёдорович посчитал своим долгом восстановить справедливость сам…

Доп. информация:

Код:

General
Complete name                    : E:ФильмыДля РаздачVoroshilovskiy.strelok.DRip..avi
Format                           : AVI
Format/Info                      : Audio Video Interleave
File size                        : 1.37 GiB
Duration                         : 1h 34mn
Overall bit rate                 : 2 073 Kbps

Video
ID                               : 0
Format                           : MPEG-4 Visual
Format profile                   : Simple@L3
Format settings, BVOP            : No
Format settings, QPel            : No
Format settings, GMC             : No warppoints
Format settings, Matrix          : Default (H.263)
Codec ID                         : XVID
Codec ID/Hint                    : XviD
Duration                         : 1h 34mn
Bit rate                         : 1 614 Kbps
Width                            : 720 pixels
Height                           : 544 pixels
Display aspect ratio             : 4/3
Frame rate                       : 25.000 fps
Resolution                       : 24 bits
Colorimetry                      : 4:2:0
Scan type                        : Progressive
Bits/(Pixel*Frame)               : 0.165
Stream size                      : 1.07 GiB (78%)
Writing library                  : XviD 1.1.2 (UTC 2006-11-01)

Audio
ID                               : 1
Format                           : AC-3
Format/Info                      : Audio Coding 3
Codec ID                         : 2000
Duration                         : 1h 34mn
Bit rate mode                    : Constant
Bit rate                         : 448 Kbps
Channel(s)                       : 6 channels
Channel positions                : Front: L C R, Surround: L R, LFE
Sampling rate                    : 48.0 KHz
Stream size                      : 303 MiB (22%)
Alignment                        : Aligned on interleaves
Interleave, duration             : 32 ms (0.80 video frame)

Качество: DVDRip
Формат: AVI
Видео кодек: XviD
Аудио кодек: AC3
Видео: 720x544 (1.32:1), 25 fps, XviD build 46 ~2061 kbps avg, 0.21 bit/pixel
Аудио#1: 48 kHz, AC3 Dolby Digital, 3/2 (L,C,R,l,r) + LFE ch, ~448.00 kbps avg




piratbit.cc



Скачать Ворошиловский стрелок через торрент http://pic.kartinco.top/images/4/lh2a2.jpg Скачать фильм Ворошиловский стрелок через торрент бесплантно в хорошем качестве Описание: Пенсионер, железнодорожник в отставке, скромно живёт со своей внучкой Катей. В соседнем доме постоянно собираются трое молодых ... 9.8 10 12
Info! Золотая раздача, скачанное не засчитывается.
Торрент: Зарегистрирован [2013-10-16 11:16] · скачан: 100 раз
Статус: √ проверено
Размер: 1.37 GB
Как cкачать? Как скачать Ворошиловский стрелок через торрент | qTorrent

% Раздел Тема Автор DL S | L
Наши фильмы, до 2010 [ 700 MB ] Ворошиловский стрелок [1999 DVDRip] markfiter Скачать
1 | 0
Фильмы до 2000 г. [ 1.37 GB ] Ворошиловский стрелок [1999 ... DVDRip] chaga2009 Скачать
1 | 0


>> Регистрируемся здесь <<






Отзывы и комментарии о схеме читаем и пишем здесь: ---> Отзывы и комментарии о схеме

Новые благодарочки в телеграм довольных пользователей:
скриншот   скриншот   скриншот   скриншот   скриншот

16-10-2013 12:21 Ворошиловский стрелок Скачать торрент  

говорухин? ахтыебжежтвоювдушумать,думал чесно-гря меньшов постарался,хороший фильмpiratbit.cc



  Клон!, выдал Ворон  Клон, выдал Ворон  Клон, выдал Ворон

16-10-2013 17:21 Ворошиловский стрелок Скачать торрент  

Шикарный фильм!piratbit.cc



16-10-2013 18:57 Ворошиловский стрелок Скачать торрент  

фильм СУПЕР!!!!! кто не смотрел - вперед!piratbit.cc



    Дорогой пользователь! Огромная просьба, поблагодарите релизера, оцените раздачу и оставьте свои комментарий, если Вы скачали Ворошиловский стрелок через торрент бесплатно! Внесите свою лепту в развитие PiratBit!
    Комментировать посты могут только пользователи прошедшие не сложную регистрацию
    Показать сообщения:    

    Ворошиловский стрелок через торрент
    Скачать бесплатно Ворошиловский стрелок
    Ворошиловский стрелок скачать торрент
    Ворошиловский стрелок смотреть онлайн
    Cкачать фильм Ворошиловский стрелок бесплатно
    Ворошиловский стрелок скачать торрент в хорошем качестве
    Ворошиловский стрелок смотреть онлайн бесплатно в хорошем качестве


    Вы не можете начинать темы
    Вы не можете отвечать на сообщения
    Вы не можете редактировать свои сообщения
    Вы не можете удалять свои сообщения
    Вы не можете голосовать в опросах
    Вы не можете прикреплять файлы к сообщениям
    Вы можете скачивать файлы