iTunes

1+1

iTunes

мы

iTunes

1

iTunes

Чернобыль

iTunes

Ральф против интернета

Лицензия

ПШазам

Лицензия

Игра престолов

Лицензия

30
pack

ВАЖНО

!!Акция!!

Alien_RageХит недели

RePack

Resident Evil 21

ИГРА 18+

pack

RePack

Metro:Exodus

!!Акция!!

Alien_Rage

RePack

fifa19

RePack

Assassins Creed: Odyssey

RePack

NEED FOR SPEED™ PAYBACK

3 сезон

9 сезон

Бесстыжие 9 сезон

Все сериалы

все сериалы на PB.wtf

RePack

FAR CRY 5
Ребята, катастрофически не хватает 7730р. для оплаты серверов за АВГУСТ (всвязи с блокировками трафик упал в 3 раза), 1-2р., выручайте.
  

Приключения Шерлока Холмса / The Adventures of Sherlock Holmes (Альфред Л. Веркер) [1939, триллер, криминал, детектив, BDRip] [MVO] + [AVO] (Ю.Сербин) piratbit.cc

Приключения Шерлока Холмса через торрент piratbit.cc

Размер: 1.52 GB | Добавлен: 5 лет 10 мес. назад | Торрент скачан:12 раз
Скачать  

22-10-2013 08:46 Приключения Шерлока Холмса Скачать торрент  

Приключения Шерлока Холмса / The Adventures of Sherlock Holmes
Год выхода: 1939
Жанр: триллер, криминал, детектив
Выпущено: США
Продолжительность: 01:21:42
Перевод #1: Профессиональный (многоголосый, закадровый)
Перевод #2: Авторский (одноголосный) [Ю.Сербин]

Режиссер: Альфред Л. Веркер / Alfred L. Werker

В ролях: Бейзил Рэтбоун, Найджел Брюс, Ида Лупино, Джордж Зукко, Алан Маршал, Терри Килбёрн, Генри Стивенсон, Артур Хол, Мэй Битти, Питер Уиллз

Описание:Профессор Мориарти разработал план кражи драгоценности короны из Лондонского Тауэра, чтобы вовлечь в игру Холмса, он убеждает флейтиста-гаучо убить девочку.



Качество: BDRip
Формат: AVI
Видео кодек: XviD
Аудио кодек: AC3
Видео: 720x536 (1.34:1), 23.976 fps, ~2070 kbps avg, 0.22 bit/pixel
Аудио #1: 48 kHz, AC3 Dolby Digital, 2/0 (L,R), ~192.00 kbps avg [MVO]
Аудио #2: 48 kHz, AC3 Dolby Digital, 6 Ch, ~384.00 kbps avg [Ю.Сербин (отдельно)]
за исходник спасибо hdtracker (v111o)
За перевод Ю. Сербина благодарим пользователей форума hdtracker:
-Джосс-, denis_mgn_1987, foxlight, KpucTo161, Letyoha3, SavineX, therox, v111o, Xerman13, ZeRoNe, MeGUI, Jiraya87
General
Complete name : E:INTERNETШерлок ХолмсПриключения Шерлока Холмса.avi
Format : AVI
Format/Info : Audio Video Interleave
File size : 1.30 GiB
Duration : 1h 21mn
Overall bit rate : 2 272 Kbps
Writing library : VirtualDub build 35390/release

Video
ID : 0
Format : MPEG-4 Visual
Format profile : Advanced Simple@L5
Format settings, BVOP : Yes
Format settings, QPel : No
Format settings, GMC : No warppoints
Format settings, Matrix : Default (MPEG)
Codec ID : XVID
Codec ID/Hint : XviD
Duration : 1h 21mn
Bit rate : 2 070 Kbps
Width : 720 pixels
Height : 536 pixels
Display aspect ratio : 4:3
Frame rate : 23.976 fps
Color space : YUV
Chroma subsampling : 4:2:0
Bit depth : 8 bits
Scan type : Progressive
Bits/(Pixel*Frame) : 0.224
Stream size : 1.18 GiB (91%)
Writing library : XviD 1.2.0.dev47 (UTC 2006-11-01)

Audio
ID : 1
Format : AC-3
Format/Info : Audio Coding 3
Mode extension : CM (complete main)
Codec ID : 2000
Duration : 1h 21mn
Bit rate mode : Constant
Bit rate : 192 Kbps
Channel(s) : 2 channels
Channel positions : Front: L R
Sampling rate : 48.0 KHz
Bit depth : 16 bits
Stream size : 112 MiB (8%)
Alignment : Aligned on interleaves
Interleave, duration : 42 ms (1.00 video frame)
Interleave, preload duration : 512 ms
piratbit.cc



Скачать Приключения Шерлока Холмса через торрент http://i59.fastpic.ru/big/2013/1022/47/977774f23694be1e212558257fa6e547.jpg Скачать фильм Приключения Шерлока Холмса через торрент бесплантно в хорошем качестве Описание:Профессор Мориарти разработал план кражи драгоценности короны из Лондонского Тауэра, чтобы вовлечь в игру Холмса, он убеждает ... 10 10 5
Info! Золотая раздача, скачанное не засчитывается.
Торрент: Зарегистрирован [2013-10-22 08:46] · скачан: 12 раз
Статус: √ проверено
Размер: 1.52 GB
Как cкачать? Как скачать Приключения Шерлока Холмса через торрент | qTorrent

% Раздел Тема Автор DL S | L
Зарубежные сериалы [ 26.19 GB ] Шерлока Холмса Возвращение Шерлока Холмса Архив Шерлока Холмса Мемуары Шерлока Холмса / The Adventures of Sherlock Holmes .../Серии 1-41 [1984-1994 DVDRip] MVO+ Original Assasinca Скачать
1 | 0


>> Регистрируемся здесь <<






Отзывы и комментарии о схеме читаем и пишем здесь: ---> Отзывы и комментарии о схеме

Новые благодарочки в телеграм довольных пользователей:
скриншот   скриншот   скриншот   скриншот   скриншот
    Дорогой пользователь! Огромная просьба, поблагодарите релизера, оцените раздачу и оставьте свои комментарий, если Вы скачали Приключения Шерлока Холмса через торрент бесплатно! Внесите свою лепту в развитие PiratBit!
    Комментировать посты могут только пользователи прошедшие не сложную регистрацию
    Показать сообщения:    

    Приключения Шерлока Холмса через торрент
    Скачать бесплатно Приключения Шерлока Холмса
    Приключения Шерлока Холмса скачать торрент
    Приключения Шерлока Холмса смотреть онлайн
    Cкачать фильм Приключения Шерлока Холмса бесплатно
    Приключения Шерлока Холмса скачать торрент в хорошем качестве
    Приключения Шерлока Холмса смотреть онлайн бесплатно в хорошем качестве


    Вы не можете начинать темы
    Вы не можете отвечать на сообщения
    Вы не можете редактировать свои сообщения
    Вы не можете удалять свои сообщения
    Вы не можете голосовать в опросах
    Вы не можете прикреплять файлы к сообщениям
    Вы можете скачивать файлы