iTunes

1+1

iTunes

мы

iTunes

1

iTunes

Чернобыль

iTunes

Ральф против интернета

Лицензия

ПШазам

Лицензия

Игра престолов

Лицензия

30
pack

ВАЖНО

!!Акция!!

Alien_RageХит недели

RePack

Resident Evil 21

ИГРА 18+

pack

RePack

Metro:Exodus

!!Акция!!

Alien_Rage

RePack

fifa19

RePack

Assassins Creed: Odyssey

RePack

NEED FOR SPEED™ PAYBACK

3 сезон

9 сезон

Бесстыжие 9 сезон

Все сериалы

все сериалы на PB.wtf

RePack

FAR CRY 5
Ребята, катастрофически не хватает 7730р. для оплаты серверов за АВГУСТ (всвязи с блокировками трафик упал в 3 раза), 1-2р., выручайте.
  

Вызывающий проклятье (Дерзкий) / H.M.S. Defiant (Льюис Гилберт) [1962 г., Драма, приключения, история, DVDRip] MVO piratbit.cc

Вызывающий проклятье через торрент piratbit.cc

Раздают: 1 [ 0 KB/s ]
Размер: 1.46 GB | Добавлен: 5 лет 10 мес. назад | Торрент скачан:39 раз
Скачать  

26-10-2013 09:53 Вызывающий проклятье Скачать торрент  

Вызывающий проклятье (Дерзкий) / H.M.S. Defiant«The cry was MUTINY... and the decks ran red!...» Год выпуска: 1962
Страна: Великобритания, Columbia Pictures Corporation, G.W. Films Limited
Жанр: Драма, приключения, история
Продолжительность: 01:36:44
Перевод: Профессиональный (многоголосый, закадровый) 5-й канал, DVD Магия + Оригинал
Субтитры: нет

Режиссер: Льюис Гилберт

В ролях: Алек Гиннесс, Дирк Богард, Морис Денэм, Найджел Сток, Ричард Карпентер, Питер Гилл, Дэвид Робинсон, Робин Стюарт, Рэй Брукс, Питер Гринспен

Описание: Конец XVIII века, во флоте Английского королевства, что находится в состоянии войны с Францией, среди матросов назревает мятеж. Но капитан Кроуффорд не только благородный воин, но и опытный моряк, поэтому его не пугают ни интриги младших офицеров, да и бунт вспыхивает во время и лишь подчеркивает патриотизм команды его фрегата перед лицом опасностей.



Качество: DVDRip
Формат: AVI
Видео кодек: XviD
Аудио кодек: AC3
Видео: 688x288 (2.39:1), 25 fps, XviD build 50 ~1556 kbps avg, 0.31 bit/pixel
Аудио #1: 48 kHz, AC3 Dolby Digital, 2/0 (L,R) ch, ~192 kbps MVO
Аудио #2: 48 kHz, AC3 Dolby Digital, 2/0 (L,R) ch, ~192 kbps MVO
Аудио #3: 48 kHz, AC3 Dolby Digital, 2/0 (L,R) ch, ~192 kbps Eng
Общее
Полное имя : D:VideoDerzkij.1962.XviD.DVDRip.by.HeDgEhOt.avi
Формат : AVI
Формат/Информация : Audio Video Interleave
Размер файла : 1,46 Гбайт
Продолжительность : 1 ч. 36 м.
Общий поток : 2153 Кбит/сек
Название фильма : Дерзкий / Вызывающий проклятье / H.M.S. Defiant / Damn the Defiant! (1962)
Правообладатель : HeDgEhOt®

Видео
Идентификатор : 0
Формат : MPEG-4 Visual
Профиль формата : Advanced Simple@L5
Параметр BVOP формата : 1
Параметр QPel формата : Нет
Параметр GMC формата : Без точки перехода
Параметр матрицы формата : Выборочная
Идентификатор кодека : XVID
Идентификатор кодека/Подсказка : XviD
Продолжительность : 1 ч. 36 м.
Битрейт : 1558 Кбит/сек
Ширина : 688 пикселей
Высота : 288 пикселей
Соотношение сторон : 2,40:1
Частота кадров : 25,000 кадров/сек
Цветовое пространство : YUV
Субдискретизация насыщенности : 4:2:0
Битовая глубина : 8 бит
Тип развёртки : Прогрессивная
Метод сжатия : С потерями
Бит/(Пиксели*Кадры) : 0.315
Размер потока : 1,05 Гбайт (72%)
Библиотека кодирования : XviD 1.2.1 (UTC 2008-12-04)

Аудио #1
Идентификатор : 1
Формат : AC-3
Формат/Информация : Audio Coding 3
Расширение режима : CM (complete main)
Параметр Endianness формата : Big
Идентификатор кодека : 2000
Продолжительность : 1 ч. 36 м.
Вид битрейта : Постоянный
Битрейт : 192 Кбит/сек
Каналы : 2 канала
Расположение каналов : Front: L R
Частота : 48,0 КГц
Битовая глубина : 16 бит
Метод сжатия : С потерями
Размер потока : 133 Мбайт (9%)
Выравнивание : Разделение по промежуткам
Продолжительность промежутка : 40 мс. (1,00 видеокадр)
Время предзагрузки промежутка : 500 мс.
Язык : Русский x 2 / English

Аудио #2
Идентификатор : 2
Формат : AC-3
Формат/Информация : Audio Coding 3
Расширение режима : CM (complete main)
Параметр Endianness формата : Big
Идентификатор кодека : 2000
Продолжительность : 1 ч. 36 м.
Вид битрейта : Постоянный
Битрейт : 192 Кбит/сек
Каналы : 2 канала
Расположение каналов : Front: L R
Частота : 48,0 КГц
Битовая глубина : 16 бит
Метод сжатия : С потерями
Размер потока : 133 Мбайт (9%)
Выравнивание : Разделение по промежуткам
Продолжительность промежутка : 40 мс. (1,00 видеокадр)
Время предзагрузки промежутка : 500 мс.

Аудио #3
Идентификатор : 3
Формат : AC-3
Формат/Информация : Audio Coding 3
Расширение режима : CM (complete main)
Параметр Endianness формата : Big
Идентификатор кодека : 2000
Продолжительность : 1 ч. 36 м.
Вид битрейта : Постоянный
Битрейт : 192 Кбит/сек
Каналы : 2 канала
Расположение каналов : Front: L R
Частота : 48,0 КГц
Битовая глубина : 16 бит
Метод сжатия : С потерями
Размер потока : 133 Мбайт (9%)
Выравнивание : Разделение по промежуткам
Продолжительность промежутка : 40 мс. (1,00 видеокадр)
Время предзагрузки промежутка : 500 мс.
piratbit.cc



Скачать Вызывающий проклятье через торрент http://pic.kartinco.top/images/4/nea89.jpg Скачать фильм Вызывающий проклятье через торрент бесплантно в хорошем качестве Описание: Конец XVIII века, во флоте Английского королевства, что находится в состоянии войны с Францией, среди матросов назревает мятеж. ... 10 10 9
Info! Золотая раздача, скачанное не засчитывается.
Торрент: Зарегистрирован [2013-10-26 09:53] · скачан: 39 раз
Статус: √ проверено
Размер: 1.46 GB
Как cкачать? Как скачать Вызывающий проклятье через торрент | qTorrent


>> Регистрируемся здесь <<






Отзывы и комментарии о схеме читаем и пишем здесь: ---> Отзывы и комментарии о схеме

Новые благодарочки в телеграм довольных пользователей:
скриншот   скриншот   скриншот   скриншот   скриншот
    Дорогой пользователь! Огромная просьба, поблагодарите релизера, оцените раздачу и оставьте свои комментарий, если Вы скачали Вызывающий проклятье через торрент бесплатно! Внесите свою лепту в развитие PiratBit!
    Комментировать посты могут только пользователи прошедшие не сложную регистрацию
    Показать сообщения:    

    Вызывающий проклятье через торрент
    Скачать бесплатно Вызывающий проклятье
    Вызывающий проклятье скачать торрент
    Вызывающий проклятье смотреть онлайн
    Cкачать фильм Вызывающий проклятье бесплатно
    Вызывающий проклятье скачать торрент в хорошем качестве
    Вызывающий проклятье смотреть онлайн бесплатно в хорошем качестве


    Вы не можете начинать темы
    Вы не можете отвечать на сообщения
    Вы не можете редактировать свои сообщения
    Вы не можете удалять свои сообщения
    Вы не можете голосовать в опросах
    Вы не можете прикреплять файлы к сообщениям
    Вы можете скачивать файлы