Лицензия

30

iTunes

мы

iTunes

1

1 сезон

Чернобыль

iTunes

1+1

iTunes

Закатать в асфальт

8 сезон

Игра престолов

1 сезон

Ральф против интернета

ИГРА 18+

pack

ВАЖНО

!!Акция!!

Alien_RageХит недели

RePack

Resident Evil 21
pack

RePack

Metro:Exodus

!!Акция!!

Alien_Rage

RePack

fifa19

RePack

Assassins Creed: Odyssey

RePack

NEED FOR SPEED™ PAYBACK

3 сезон

9 сезон

Бесстыжие 9 сезон

Все сериалы

все сериалы на PB.wtf

RePack

FAR CRY 5
Ребята, катастрофически не хватает 2730р. для оплаты серверов за АПРЕЛЬ (всвязи с блокировками трафик упал в 3 раза), 1-2р., выручайте.
  

Помощничек (Андрей Бадин) [ 2007 , Россия , комедия, приключения , DVDRip ] piratbit.cc

Помощничек через торрент piratbit.cc

Размер: 1.09 GB | Добавлен: 5 лет 4 мес. назад | Торрент скачан:73 раза
Скачать  

29-12-2013 10:49 Помощничек Скачать торрент  

ПомощничекГод выпуска:2007
Страна: Россия
Жанр: комедия, приключения
Продолжительность: 01:16:04
Перевод: Не требуется

Субтитры: Нет
Режиссер: Андрей Бадин

В ролях: Андрей Бадин, Андрей Лойко, Сергей Беряков, Павел Шитов, Николай Лойко, Александра Дрессен
Описание:
Не имей сто рублей, а имей сто друзей! Ну... или хотя бы одного, но такого, как наш герой - неповоротливый верзила Леха! Добрейшей души человек! Бедняга не может отказать в помощи никому, а тем более своему лучшему другу, который регулярно нагружает его разными поручениями.
Рейтинг
Качество: DVDRip
Формат: AVI
Видео кодек: XviD
Аудио кодек: AC3
Видео: XviD, 704x528 (4:3), 1841 kbps, 25 fps, 0,198 bpp
Аудио: AC3 / 2.0 / 48 kHz / 192 kbps / 16 bit© Оформление by ФёдорOFF
General
Complete name : D:раздачиПомошничек 2007.avi
Format : AVI
Format/Info : Audio Video Interleave
File size : 1.09 GiB
Duration : 1h 16mn
Overall bit rate : 2 044 Kbps
Writing application : VirtualDubMod 1.5.10.2 (build 2540/release)
Writing library : VirtualDubMod build 2540/release

Video
ID : 0
Format : MPEG-4 Visual
Format profile : Advanced Simple@L5
Format settings, BVOP : 2
Format settings, QPel : No
Format settings, GMC : No warppoints
Format settings, Matrix : Default (MPEG)
Codec ID : XVID
Codec ID/Hint : XviD
Duration : 1h 16mn
Bit rate : 1 842 Kbps
Width : 704 pixels
Height : 528 pixels
Display aspect ratio : 4:3
Frame rate : 25.000 fps
Color space : YUV
Chroma subsampling : 4:2:0
Bit depth : 8 bits
Scan type : Progressive
Compression mode : Lossy
Bits/(Pixel*Frame) : 0.198
Stream size : 1 002 MiB (90%)
Writing library : XviD 1.2.1 (UTC 2008-12-04)

Audio
ID : 1
Format : AC-3
Format/Info : Audio Coding 3
Mode extension : CM (complete main)
Codec ID : 2000
Duration : 1h 16mn
Bit rate mode : Constant
Bit rate : 192 Kbps
Channel(s) : 2 channels
Channel positions : Front: L R
Sampling rate : 48.0 KHz
Bit depth : 16 bits
Compression mode : Lossy
Stream size : 104 MiB (9%)
Alignment : Split accross interleaves
Interleave, duration : 40 ms (1.00 video frame)
Interleave, preload duration : 500 ms
piratbit.cc



Скачать Помощничек через торрент http://i6.imageban.ru/out/2013/12/29/a5e7d190871544fbf03ce03647d302e7.jpg Скачать фильм Помощничек через торрент бесплантно в хорошем качестве Описание: Не имей сто рублей, а имей сто друзей! Ну... или хотя бы одного, но такого, как наш герой - неповоротливый верзила Леха! ... 10 10 8
Info! Золотая раздача, скачанное не засчитывается.
Торрент: Зарегистрирован [2013-12-29 10:49] · скачан: 73 раз
Статус: √ проверено
Размер: 1.09 GB
Как cкачать? Как скачать Помощничек через торрент | qTorrent

% Раздел Тема Автор DL S | L
Гонзо [ 1.2 GB ] Маленькие мамашкины помощнички / Mommy's Little Helper [2013 All Sex MILF Oral Anal Big Tits. DVDRip] Pir@tya2010 Скачать
1 | 0


>> Регистрируемся здесь <<






Отзывы и комментарии о схеме читаем и пишем здесь: ---> Отзывы и комментарии о схеме

Новые благодарочки в телеграм довольных пользователей:
скриншот   скриншот   скриншот   скриншот   скриншот
    Дорогой пользователь! Огромная просьба, поблагодарите релизера, оцените раздачу и оставьте свои комментарий, если Вы скачали Помощничек через торрент бесплатно! Внесите свою лепту в развитие PiratBit!
    Комментировать посты могут только пользователи прошедшие не сложную регистрацию
    Показать сообщения:    

    Помощничек через торрент
    Скачать бесплатно Помощничек
    Помощничек скачать торрент
    Помощничек смотреть онлайн
    Cкачать фильм Помощничек бесплатно
    Помощничек скачать торрент в хорошем качестве
    Помощничек смотреть онлайн бесплатно в хорошем качестве


    Вы не можете начинать темы
    Вы не можете отвечать на сообщения
    Вы не можете редактировать свои сообщения
    Вы не можете удалять свои сообщения
    Вы не можете голосовать в опросах
    Вы не можете прикреплять файлы к сообщениям
    Вы можете скачивать файлы