iTunes

1+1

iTunes

мы

iTunes

1

iTunes

Чернобыль

iTunes

Ральф против интернета

Лицензия

ПШазам

Лицензия

Игра престолов

Лицензия

30
pack

ВАЖНО

!!Акция!!

Alien_RageХит недели

RePack

Resident Evil 21

ИГРА 18+

pack

RePack

Metro:Exodus

!!Акция!!

Alien_Rage

RePack

fifa19

RePack

Assassins Creed: Odyssey

RePack

NEED FOR SPEED™ PAYBACK

3 сезон

9 сезон

Бесстыжие 9 сезон

Все сериалы

все сериалы на PB.wtf

RePack

FAR CRY 5
Ребята, катастрофически не хватает 7730р. для оплаты серверов за АВГУСТ (всвязи с блокировками трафик упал в 3 раза), 1-2р., выручайте.
  

Новый Comedy Club (386 Выпуск) [2014 г., Телепередача, Юмор, WEBRip] эфир от 10.01.2014 piratbit.cc

Новый Comedy Club через торрент piratbit.cc

Размер: 627 MB | Добавлен: 5 лет 8 мес. назад | Торрент скачан:936 раз
Скачать  

10-01-2014 12:50 Новый Comedy Club Скачать торрент  

Новый Comedy Club (386 Выпуск)Год выпуска: 2014
Страна: Россия
Жанр: Телепередача, Юмор
Продолжительность: ~ 00:46:03

Описание:
Как всегда, Comedy Club собрал все самое смешное, чтобы оставаться самым крутым юмористическим шоу на телевидении. Только самые лучшие номера от резидентов "Сomedy Сlub". Выдержанный юмор, проверенный временем и многомиллионной телевизионной аудиторией. Павел Воля бросает пить, а Тимур Батрутдинов оказывает клиентам интимные услуги. Кроме того в выпуске - лучшие песни от участников грушинского бард-н-блюз фестиваля в Америке, экспериментальный юмор от Гарика Мартиросяна и многое другое. Вы помните, что теперь Новый Comedy Club – больше чем просто шоу на сцене? Камеры готовы? Музыканты готовы? Зрители готовы? Поехали!

Качество: WEBRip
Формат: AVI
Видео кодек: DivX
Аудио кодек: MP3
Видео: 720x400, 25 fps, ~1701 kb/s
Аудио#1: 192 Кбит/сек, 2 канала, 44.1 KHz
Скриншоты:скриншот   скриншот   скриншот   скриншот   скриншот  

Код:

Формат : AVI
Формат/Информация : Audio Video Interleave
Размер файла : 627 Мбайт
Продолжительность : 46 м.
Общий поток : 1903 Кбит/сек
Программа кодирования : VirtualDubMod 1.5.10.3 | www.virtualdub-fr.org || (build 2550/release)
Библиотека кодирования : VirtualDubMod build 2550/release

Видео
Идентификатор : 0
Формат : MPEG-4 Visual
Профиль формата : Advanced Simple@L5
Параметр BVOP формата : 1
Параметр QPel формата : Нет
Параметр GMC формата : Без точки перехода
Параметр матрицы формата : Default (MPEG)
Идентификатор кодека : DX50
Идентификатор кодека/Подсказка : DivX 5
Продолжительность : 46 м.
Битрейт : 1701 Кбит/сек
Ширина : 720 пикселей
Высота : 400 пикселей
Соотношение сторон : 16:9
Частота кадров : 25,000 кадров/сек
Цветовое пространство : YUV
Субдискретизация насыщенности : 4:2:0
Битовая глубина : 8 бит
Тип развёртки : Прогрессивная
Метод сжатия : С потерями
Бит/(Пиксели*Кадры) : 0.236
Размер потока : 560 Мбайт (89%)
Библиотека кодирования : XviD 1.2.1 (UTC 2008-12-04)

Аудио
Идентификатор : 1
Формат : MPEG Audio
Версия формата : Version 1
Профиль формата : Layer 3
Идентификатор кодека : 55
Идентификатор кодека/Подсказка : MP3
Продолжительность : 46 м.
Вид битрейта : Постоянный
Битрейт : 192 Кбит/сек
Каналы : 2 канала
Частота : 44,1 КГц
Метод сжатия : С потерями
Размер потока : 63,2 Мбайт (10%)
Выравнивание : Разделение по промежуткам
Продолжительность промежутка : 40 мс. (1,00 видеокадр)
Время предзагрузки промежутка : 500 мс.
Библиотека кодирования : LAME3.99r
Настройки программы : -m s -V 4 -q 0 -lowpass 18.6 -b 192



piratbit.cc



Скачать Новый Comedy Club через торрент http://pic.kartinco.top/images/2/s3dik5vrm3.jpg Скачать фильм Новый Comedy Club через торрент бесплантно в хорошем качестве Описание: Как всегда, Comedy Club собрал все самое смешное, чтобы оставаться самым крутым юмористическим шоу на телевидении. Только самые ... 9.6 10 31
Info! Золотая раздача, скачанное не засчитывается.
Торрент: Зарегистрирован [2014-01-10 12:50] · скачан: 936 раз
Статус: √ проверено
Размер: 627 MB
Как cкачать? Как скачать Новый Comedy Club через торрент | qTorrent


>> Регистрируемся здесь <<






Отзывы и комментарии о схеме читаем и пишем здесь: ---> Отзывы и комментарии о схеме

Новые благодарочки в телеграм довольных пользователей:
скриншот   скриншот   скриншот   скриншот   скриншот

12-02-2018 14:05 Новый Comedy Club Скачать торрент  

Топик был перенесен из форума Comedy Club - Комеди Клаб в форум Comedy Club - Комеди Клаб new


DEVIpiratbit.cc



    Дорогой пользователь! Огромная просьба, поблагодарите релизера, оцените раздачу и оставьте свои комментарий, если Вы скачали Новый Comedy Club через торрент бесплатно! Внесите свою лепту в развитие PiratBit!
    Комментировать посты могут только пользователи прошедшие не сложную регистрацию
    Показать сообщения:    

    Новый Comedy Club через торрент
    Скачать бесплатно Новый Comedy Club
    Новый Comedy Club скачать торрент
    Новый Comedy Club смотреть онлайн
    Cкачать фильм Новый Comedy Club бесплатно
    Новый Comedy Club скачать торрент в хорошем качестве
    Новый Comedy Club смотреть онлайн бесплатно в хорошем качестве


    Вы не можете начинать темы
    Вы не можете отвечать на сообщения
    Вы не можете редактировать свои сообщения
    Вы не можете удалять свои сообщения
    Вы не можете голосовать в опросах
    Вы не можете прикреплять файлы к сообщениям
    Вы можете скачивать файлы