Лицензия

30

iTunes

мы

iTunes

1

1 сезон

Чернобыль

1 сезон

Ральф против интернета

MVO

Покемон. Детектив Пикачу

8 сезон

Игра престолов

iTunes

1+1

ИГРА 18+

pack

ВАЖНО

!!Акция!!

Alien_RageХит недели

RePack

Resident Evil 21
pack

RePack

Metro:Exodus

!!Акция!!

Alien_Rage

RePack

fifa19

RePack

Assassins Creed: Odyssey

RePack

NEED FOR SPEED™ PAYBACK

3 сезон

9 сезон

Бесстыжие 9 сезон

Все сериалы

все сериалы на PB.wtf

RePack

FAR CRY 5
Ребята, катастрофически не хватает 2730р. для оплаты серверов за МАЙ (всвязи с блокировками трафик упал в 3 раза), 1-2р., выручайте.
  

Граффити (Игорь Апасян) [2006 г., драма, комедия, DVDRip] piratbit.cc

Граффити через торрент piratbit.cc

Размер: 1.46 GB | Добавлен: 5 лет 4 мес. назад | Торрент скачан:84 раза
Скачать  

23-01-2014 21:50 Граффити Скачать торрент  

Граффити
Год выпуска: 2006
Страна: Россия
Жанр: драма, комедия,
Продолжительность: 02:00:58

Режиссер: Игорь Апасян
Продюссер: Максим Хусаинов
Сценарий: Игорь Апасян



В ролях: Андрей Новиков, Александр Ильин, Лариса Гузеева, Виктор Перевалов, Иван Николаев, Ольга Юрасова, Александр Кащеев, Александр Соловьев, Клаудиа Бочар, Степан Рожнов

Описание: Художник-дипломник ловит кайф, расписывая в стиле граффити стенки столичной подземки. Но у улицы свои законы, надо знать территорию. В разборке с местными байкерами Андрей получает подбитый глаз, подвернутую ногу и лишается поездки в Италию с выпускным курсом и любимой девушкой. Вместо Венеции Андрея отправляют писать родные просторы в провинцию. Но и здесь он не может обойтись без приключений, только они уже совсем другие…

Качество: DVDRip
Формат: AVI
Видео кодек: XviD
Аудио кодек: AC3
Видео: 704x384, (1,85:1), 25,000 кадров/сек, 1269 Кбит/сек, 0.188 бит/пикс
Аудио: 48,0 КГц, АС3, 6 каналов, 448 Кбит/сек
скриншот   скриншот   скриншот   скриншот   скриншот   скриншот  
Общее
Полное имя : D:загрузкиГраффити 2006.avi
Формат : AVI
Формат/Информация : Audio Video Interleave
Размер файла : 1,46 Гбайт
Продолжительность : 2 ч. 0 м.
Общий поток : 1724 Кбит/сек
Программа кодирования : VirtualDubMod 1.5.4.1 (build 2178/release)
Библиотека кодирования : VirtualDubMod build 2178/release

Видео
Идентификатор : 0
Формат : MPEG-4 Visual
Профиль формата : Advanced Simple@L5
Параметр BVOP формата : 1
Параметр QPel формата : Нет
Параметр GMC формата : Без точки перехода
Параметр матрицы формата : Выборочная
Идентификатор кодека : XVID
Идентификатор кодека/Подсказка : XviD
Продолжительность : 2 ч. 0 м.
Битрейт : 1269 Кбит/сек
Ширина : 704 пикселя
Высота : 384 пикселя
Соотношение сторон : 1,85:1
Частота кадров : 25,000 кадров/сек
Цветовое пространство : YUV
Субдискретизация насыщенности : 4:2:0
Битовая глубина : 8 бит
Тип развёртки : Прогрессивная
Метод сжатия : С потерями
Бит/(Пиксели*Кадры) : 0.188
Размер потока : 1,07 Гбайт (74%)
Библиотека кодирования : XviD 64

Аудио
Идентификатор : 1
Формат : AC-3
Формат/Информация : Audio Coding 3
Расширение режима : CM (complete main)
Параметр Endianness формата : Big
Идентификатор кодека : 2000
Продолжительность : 2 ч. 0 м.
Вид битрейта : Постоянный
Битрейт : 448 Кбит/сек
Каналы : 6 каналов
Расположение каналов : Front: L C R, Side: L R, LFE
Частота : 48,0 КГц
Битовая глубина : 16 бит
Метод сжатия : С потерями
Размер потока : 388 Мбайт (26%)
Выравнивание : Разделение по промежуткам
Продолжительность промежутка : 96 мс. (2,40 видеокадра)
Время предзагрузки промежутка : 96 мс.
Язык : Russian

piratbit.cc



Скачать Граффити через торрент http://pic.kartinco.top/images/6/1lvps.jpg Скачать фильм Граффити через торрент бесплантно в хорошем качестве Описание: Художник-дипломник ловит кайф, расписывая в стиле граффити стенки столичной подземки. Но у улицы свои законы, надо знать ... 9.7 10 11
Info! Золотая раздача, скачанное не засчитывается.
Торрент: Зарегистрирован [2014-01-23 21:50] · скачан: 84 раз
Статус: √ проверено
Размер: 1.46 GB
Как cкачать? Как скачать Граффити через торрент | qTorrent

% Раздел Тема Автор DL S | L
Классика зарубежного кино [ 2.18 GB ] Американские Граффити / American Graffiti [1973 BDRip] MVO + VO + Original Ворон Скачать
1 | 0


>> Регистрируемся здесь <<






Отзывы и комментарии о схеме читаем и пишем здесь: ---> Отзывы и комментарии о схеме

Новые благодарочки в телеграм довольных пользователей:
скриншот   скриншот   скриншот   скриншот   скриншот

23-01-2014 22:02 Граффити Скачать торрент  

Безенчук
Саня, благодарю, слышал - но не видел.Исправлю недочет piratbit.cc



23-01-2014 22:11 Граффити Скачать торрент  

Безенчук
Спасибо огромное! yes
Скачаю и ещё раз пересмотрю, смотрел 1 раз в год выхода и хорошо запомнил этот фильм, жаль актёра на последнем скриншоте...царство ему небесное!piratbit.cc



23-01-2014 22:19 Граффити Скачать торрент  

igorutka
marsmoon
фильм отличный,приятного просмотра piratbit.cc



24-01-2014 06:45 Граффити Скачать торрент  

marsmoon писал(а):

Безенчук
Спасибо огромное! yes
Скачаю и ещё раз пересмотрю, смотрел 1 раз в год выхода и хорошо запомнил этот фильм, жаль актёра на последнем скриншоте...царство ему небесное!

Виктор Перевалов...Помню его по сказке"Марья-Искуссница",мелкий он там ещё совсем был.Где ещё солдат с барабаном Водокрута XIII-го тиранил piratbit.cc



24-01-2014 10:35 Граффити Скачать торрент  

marsmoon писал(а):

Безенчук
Спасибо огромное! yes
Скачаю и ещё раз пересмотрю, смотрел 1 раз в год выхода и хорошо запомнил этот фильм, жаль актёра на последнем скриншоте...царство ему небесное!

Актёра на последнем скриншоте зовут Виктор Перевалов и он ещё жив piratbit.cc



24-01-2014 12:22 Граффити Скачать торрент  

Sevser
Я глянул как все теперь делается - в нет ,к сожалению ,в 2010 актера не стало... Если кому интересно (другие источники мне не понравились из-за некорректного отношения к памяти покойного ) то http://chtoby-pomnili.com/page.php?id=245
Помянем...piratbit.cc



24-01-2014 16:04 Граффити Скачать торрент  

igorutka
Спасибо! yes piratbit.cc



24-01-2014 17:19 Граффити Скачать торрент  

igorutka писал(а):

Sevser
Я глянул как все теперь делается - в нет ,к сожалению ,в 2010 актера не стало... Если кому интересно (другие источники мне не понравились из-за некорректного отношения к памяти покойного ) то http://chtoby-pomnili.com/page.php?id=245
Помянем...

Светлая память.Рано ушёл.piratbit.cc



30-10-2014 09:41 Граффити Скачать торрент  

дайте скорости! этот фильм просто офигенный!смотрел давно piratbit.cc



    Дорогой пользователь! Огромная просьба, поблагодарите релизера, оцените раздачу и оставьте свои комментарий, если Вы скачали Граффити через торрент бесплатно! Внесите свою лепту в развитие PiratBit!
    Комментировать посты могут только пользователи прошедшие не сложную регистрацию
    Показать сообщения:    

    Граффити через торрент
    Скачать бесплатно Граффити
    Граффити скачать торрент
    Граффити смотреть онлайн
    Cкачать фильм Граффити бесплатно
    Граффити скачать торрент в хорошем качестве
    Граффити смотреть онлайн бесплатно в хорошем качестве


    Вы не можете начинать темы
    Вы не можете отвечать на сообщения
    Вы не можете редактировать свои сообщения
    Вы не можете удалять свои сообщения
    Вы не можете голосовать в опросах
    Вы не можете прикреплять файлы к сообщениям
    Вы можете скачивать файлы