iTunes

1+1

iTunes

мы

iTunes

1

1 сезон

Чернобыль

1 сезон

Ральф против интернета

Лицензия

ПШазам

8 сезон

Игра престолов

Лицензия

30
pack

ВАЖНО

!!Акция!!

Alien_RageХит недели

RePack

Resident Evil 21

ИГРА 18+

pack

RePack

Metro:Exodus

!!Акция!!

Alien_Rage

RePack

fifa19

RePack

Assassins Creed: Odyssey

RePack

NEED FOR SPEED™ PAYBACK

3 сезон

9 сезон

Бесстыжие 9 сезон

Все сериалы

все сериалы на PB.wtf

RePack

FAR CRY 5
Ребята, катастрофически не хватает 2730р. для оплаты серверов за ИЮНЬ (всвязи с блокировками трафик упал в 3 раза), 1-2р., выручайте.
  

Трюкач / The Stunt Man (Ричард Раш) [1980 г., боевик, триллер, драма, мелодрама, комедия, HDRip] DUB piratbit.cc

Трюкач через торрент piratbit.cc

Размер: 2.18 GB | Добавлен: 5 лет 5 мес. назад | Торрент скачан:22 раза
Скачать  

16-02-2014 16:43 Трюкач Скачать торрент  

Трюкач
Год выпуска: 1980
Страна: США 20th Century Fox, Simon Productions
Жанр: боевик, триллер, драма, мелодрама, комедия
Продолжительность: 02:10:42
Перевод: Дубляж

Режиссер: Ричард Раш
Продюссер: Ричард Раш, Мелвин Саймон, Пол Льюис
Сценарий: Лоуренс Б. Маркус, Ричард Раш, Пол Бродер

Бюджет: $3 500 000
Премьера в мире: 27 июня 1980



В ролях: Питер О`Тул, Стив Рейлсбэк, Барбара Хёрши, Аллен Гарфилд, Алекс Рокко, Шарон Фаррелл, Адам Рорк, Филип Брунс, Чарльз Бэйл, Джон Гарвуд, Джим Хесс, Джон Пирс, Майкл Рэйлзбэк, Джордж Уоллес, Ди Кэрролл, Лесли Уиноград, Дон Кеннеди, Уайти Хьюз, Уолтер Роблз, А.Дж. Бакунас, Роберто Карузо, Фрэнк Алива, Стэффорд Морган, Джон Олдермен, Джек Палинкас, Сесил Бриттейн, Гаррет МакФерсон, Нельсон Тайлер, Луис Гартнер, Уильям Джозеф Арно, Джеймс Эйври, Френк Битсон, Грегг Бергер, Дианна Дае Коулмэн, Ларри Данн, Патриция МакФерсон, Росс Рейнольдс, Гордон Росс, Мэрион Вейн, Ли Уэбб

Описание: Скрываясь от полиции, Кеймерон попадает на съемочную площадку фильма о Первой мировой войне. Жестокому режиссеру Кроссу нужен человек, который заменил бы погибшего каскадера. Кеймерон получает укрытие, но он должен заменить каскадера. Пройдя ужасы вьетнамской войны, Кеймерон в роли американского летчика, демонстрирует фантастическое мужество.

Качество: HDRip
Формат: AVI
Видео кодек: XviD
Аудио кодек: AC3
Видео: Xvid 720x384, 23.98fps, 1 578 Kbps
Аудио#1: Dolby AC3, 48000Hz, 2ch, 256kbps Русский
Аудио#2: Dolby AC3, 48000Hz, 6ch, 448kbps Английский
Релиз от: alek7120





General
Complete name : D:16 02 2014Trjukach.1980.XviD.HDRip.NovaLan.avi
Format : AVI
Format/Info : Audio Video Interleave
Format profile : OpenDML
File size : 2.18 GiB
Duration : 2h 10mn
Overall bit rate : 2 387 Kbps
Movie name : Trjukach.1980.XviD.HDRip.NovaLan.avi
Director : NovaLan_alek7120
Writing application : VirtualDubMod 1.5.10.2 (build 2540/release)

Video
ID : 0
Format : MPEG-4 Visual
Format profile : Advanced Simple@L5
Format settings, BVOP : 1
Format settings, QPel : No
Format settings, GMC : No warppoints
Format settings, Matrix : Default (MPEG)
Codec ID : XVID
Codec ID/Hint : XviD
Duration : 2h 10mn
Bit rate : 1 666 Kbps
Width : 720 pixels
Height : 384 pixels
Display aspect ratio : 1.875
Frame rate : 23.976 fps
Color space : YUV
Chroma subsampling : 4:2:0
Bit depth : 8 bits
Scan type : Progressive
Compression mode : Lossy
Bits/(Pixel*Frame) : 0.251
Stream size : 1.52 GiB (70%)
Writing library : XviD 1.2.1 (UTC 2008-12-04)

Audio #1
ID : 1
Format : AC-3
Format/Info : Audio Coding 3
Mode extension : CM (complete main)
Codec ID : 2000
Duration : 2h 10mn
Bit rate mode : Constant
Bit rate : 256 Kbps
Channel(s) : 2 channels
Channel positions : Front: L R
Sampling rate : 48.0 KHz
Bit depth : 16 bits
Compression mode : Lossy
Stream size : 239 MiB (11%)
Alignment : Split accross interleaves
Interleave, duration : 42 ms (1.00 video frame)
Interleave, preload duration : 500 ms

Audio #2
ID : 2
Format : AC-3
Format/Info : Audio Coding 3
Mode extension : CM (complete main)
Codec ID : 2000
Duration : 2h 10mn
Bit rate mode : Constant
Bit rate : 448 Kbps
Channel(s) : 6 channels
Channel positions : Front: L C R, Side: L R, LFE
Sampling rate : 48.0 KHz
Bit depth : 16 bits
Compression mode : Lossy
Stream size : 419 MiB (19%)
Alignment : Split accross interleaves
Interleave, duration : 42 ms (1.00 video frame)
Interleave, preload duration : 500 ms

piratbit.cc



Скачать Трюкач через торрент http://pic.kartinco.top/images/6/xt397.jpg Скачать фильм Трюкач через торрент бесплантно в хорошем качестве Описание: Скрываясь от полиции, Кеймерон попадает на съемочную площадку фильма о Первой мировой войне. Жестокому режиссеру Кроссу нужен ... 10 10 5
Info! Золотая раздача, скачанное не засчитывается.
Торрент: Зарегистрирован [2014-02-16 16:43] · скачан: 22 раз
Статус: √ проверено
Размер: 2.18 GB
Как cкачать? Как скачать Трюкач через торрент | qTorrent

% Раздел Тема Автор DL S | L
Фильмы до 2000 г. [ 2.18 GB ] Трюкач / The Stunt Man [1980 BDRip] MVO DUB koenig Скачать
1 | 0


Последний раз редактировалось: lug30 (2014-02-16 17:03), всего редактировалось 1 раз


>> Регистрируемся здесь <<






Отзывы и комментарии о схеме читаем и пишем здесь: ---> Отзывы и комментарии о схеме

Новые благодарочки в телеграм довольных пользователей:
скриншот   скриншот   скриншот   скриншот   скриншот
    Дорогой пользователь! Огромная просьба, поблагодарите релизера, оцените раздачу и оставьте свои комментарий, если Вы скачали Трюкач через торрент бесплатно! Внесите свою лепту в развитие PiratBit!
    Комментировать посты могут только пользователи прошедшие не сложную регистрацию
    Показать сообщения:    

    Трюкач через торрент
    Скачать бесплатно Трюкач
    Трюкач скачать торрент
    Трюкач смотреть онлайн
    Cкачать фильм Трюкач бесплатно
    Трюкач скачать торрент в хорошем качестве
    Трюкач смотреть онлайн бесплатно в хорошем качестве


    Вы не можете начинать темы
    Вы не можете отвечать на сообщения
    Вы не можете редактировать свои сообщения
    Вы не можете удалять свои сообщения
    Вы не можете голосовать в опросах
    Вы не можете прикреплять файлы к сообщениям
    Вы можете скачивать файлы