Лицензия

30

iTunes

мы

iTunes

1

1 сезон

Чернобыль

1 сезон

Ральф против интернета

MVO

Покемон. Детектив Пикачу

8 сезон

Игра престолов

iTunes

1+1

ИГРА 18+

pack

ВАЖНО

!!Акция!!

Alien_RageХит недели

RePack

Resident Evil 21
pack

RePack

Metro:Exodus

!!Акция!!

Alien_Rage

RePack

fifa19

RePack

Assassins Creed: Odyssey

RePack

NEED FOR SPEED™ PAYBACK

3 сезон

9 сезон

Бесстыжие 9 сезон

Все сериалы

все сериалы на PB.wtf

RePack

FAR CRY 5
Ребята, катастрофически не хватает 2730р. для оплаты серверов за МАЙ (всвязи с блокировками трафик упал в 3 раза), 1-2р., выручайте.
  

Все то, о чем мы так долго мечтали (Рудольф Фрунтов) [1997 г., Боевик, драма, DVDRip] piratbit.cc

Все то, о чем мы так долго мечтали через торрент piratbit.cc

Размер: 1.37 GB | Добавлен: 5 лет 4 мес. назад | Торрент скачан:35 раз
Скачать  

16-02-2014 17:57 Все то, о чем мы так долго мечтали Скачать торрент  

Все то о чем мы так долго мечтали
Год выпуска: 1997
Страна: Россия Русский фильм
Жанр: Боевик, драма
Продолжительность: 01:39:04

Режиссер: Рудольф Фрунтов
Продюссер: Рудольф Фрунтов
Сценарий: Анатолий Усов



В ролях: Николай Добрынин, Анна Терехова, Сергей Угаров, Александр Песков, Нина Агапова, Всеволод Шиловский, Георгий Корольчук, Максим Коновалов, Вячеслав Гришечкин, Николай Карпеченков,

Описание: Двое друзей мечтали о бабах, "бабках" и выпивке. Их вполне можно понять, так как служили они в армии. На гражданке встретились, и один втянул другого перегонять машины из Германии, забыв сказать, что "тачки" ворованные. Тот устроил в борделе скандал из-за того, что ему за 300 марок соотечественницу крашенную подставили, а не фрау блондинистую, и попал в тюрьму. Его жизнь становится кошмаром, и он начинает понимать что больше не увидит ничего светлого. Но однажды удача ему улыбнулась...

Качество: DVDRip
Формат: AVI
Видео кодек: XviD
Аудио кодек: AC3
Видео: Xvid 720x544, 25.00fps, 1 776 Kbps
Аудио: Dolby AC3, 48000Hz, 3ch, 192kbps
Релиз от: S.W.A.T





General
Complete name : D:16 02 2014Vse.to.o.zem.mi.tak.dolgo.meztali.1997.XviD.DVDRip.avi
Format : AVI
Format/Info : Audio Video Interleave
File size : 1.37 GiB
Duration : 1h 39mn
Overall bit rate : 1 975 Kbps
Writing application : VirtualDubMod 1.5.4.1 (build 2178/release)
Writing library : VirtualDubMod build 2178/release

Video
ID : 0
Format : MPEG-4 Visual
Format profile : Advanced Simple@L5
Format settings, BVOP : 1
Format settings, QPel : No
Format settings, GMC : No warppoints
Format settings, Matrix : Custom
Codec ID : XVID
Codec ID/Hint : XviD
Duration : 1h 39mn
Bit rate : 1 776 Kbps
Width : 720 pixels
Height : 544 pixels
Display aspect ratio : 4:3
Frame rate : 25.000 fps
Color space : YUV
Chroma subsampling : 4:2:0
Bit depth : 8 bits
Scan type : Progressive
Compression mode : Lossy
Bits/(Pixel*Frame) : 0.181
Stream size : 1.23 GiB (90%)
Writing library : XviD 1.2.0.dev47 (UTC 2006-11-01)

Audio
ID : 1
Format : AC-3
Format/Info : Audio Coding 3
Mode extension : CM (complete main)
Codec ID : 2000
Duration : 1h 39mn
Bit rate mode : Constant
Bit rate : 192 Kbps
Channel(s) : 3 channels
Channel positions : Front: L R, LFE
Sampling rate : 48.0 KHz
Bit depth : 16 bits
Compression mode : Lossy
Stream size : 136 MiB (10%)
Alignment : Split accross interleaves
Interleave, duration : 96 ms (2.40 video frames)
Interleave, preload duration : 96 ms
Language : Russian

piratbit.cc



Скачать Все то, о чем мы так долго мечтали через торрент http://pic.kartinco.top/images/6/c9in4.jpg Скачать фильм Все то, о чем мы так долго мечтали через торрент бесплантно в хорошем качестве Описание: Двое друзей мечтали о бабах, "бабках" и выпивке. Их вполне можно понять, так как служили они в армии. На гражданке встретились, и ... 10 10 6
Info! Золотая раздача, скачанное не засчитывается.
Торрент: Зарегистрирован [2014-02-16 17:57] · скачан: 35 раз
Статус: √ проверено
Размер: 1.37 GB
Как cкачать? Как скачать Все то, о чем мы так долго мечтали через торрент | qTorrent


>> Регистрируемся здесь <<






Отзывы и комментарии о схеме читаем и пишем здесь: ---> Отзывы и комментарии о схеме

Новые благодарочки в телеграм довольных пользователей:
скриншот   скриншот   скриншот   скриншот   скриншот
    Дорогой пользователь! Огромная просьба, поблагодарите релизера, оцените раздачу и оставьте свои комментарий, если Вы скачали Все то, о чем мы так долго мечтали через торрент бесплатно! Внесите свою лепту в развитие PiratBit!
    Комментировать посты могут только пользователи прошедшие не сложную регистрацию
    Показать сообщения:    

    Все то, о чем мы так долго мечтали через торрент
    Скачать бесплатно Все то, о чем мы так долго мечтали
    Все то, о чем мы так долго мечтали скачать торрент
    Все то, о чем мы так долго мечтали смотреть онлайн
    Cкачать фильм Все то, о чем мы так долго мечтали бесплатно
    Все то, о чем мы так долго мечтали скачать торрент в хорошем качестве
    Все то, о чем мы так долго мечтали смотреть онлайн бесплатно в хорошем качестве


    Вы не можете начинать темы
    Вы не можете отвечать на сообщения
    Вы не можете редактировать свои сообщения
    Вы не можете удалять свои сообщения
    Вы не можете голосовать в опросах
    Вы не можете прикреплять файлы к сообщениям
    Вы можете скачивать файлы