Лицензия

30

MVO

Как приручить дракона 3

11 сезон

1

1 сезон

гринч

iTunes

Стекло

iTunes

Клаустрофобы

8 сезон

Игра престолов

iTunes

Ральф против интернета Хит недели

ИГРА 18+

pack

ВАЖНО

!!Акция!!

Alien_RageХит недели

RePack

Resident Evil 21
pack

RePack

Metro:Exodus

!!Акция!!

Alien_Rage

RePack

fifa19

RePack

Assassins Creed: Odyssey

RePack

NEED FOR SPEED™ PAYBACK

3 сезон

9 сезон

Бесстыжие 9 сезон

Все сериалы

все сериалы на PB.wtf

RePack

FAR CRY 5
Ребята, критически не успеваем дособрать 3200р. для оплаты серверов за Март (всвязи с блокировками трафик упал в 3 раза), 1-2р., выручайте.
  

ССД: Смерть Советским Детям (Вадим Шмелев) [2008 г., Ужасы, триллер, DVDRip] piratbit.cc

ССД: Смерть Советским Детям через торрент piratbit.cc

Размер: 1.37 GB | Добавлен: 5 лет 2 мес. назад | Торрент скачан:123 раза
Скачать  

17-02-2014 07:26 ССД: Смерть Советским Детям Скачать торрент  

ССД: Смерть Советским Детям
Год выпуска: 2008
Страна: Россия
Жанр: Ужасы, триллер,
Продолжительность: 01:33:19
Субтитры: отсутствуют

Режиссер: Вадим Шмелев
Продюссер: Валерий Тодоровский, Илья Неретин, Вадим Горяинов
Сценарий: Вадим Шмелев, Денис Карышев

Бюджет: $1 500 000
Премьера в мире: 16 апреля 2009, ...

зрителям, достигшим 16 лет


В ролях: Евгения Хиривская, Игорь Арташонов, Дмитрий Кубасов, Екатерина Копанова, Анфиса Чехова, Артем Мазунов,

Описание: На телевидении запускается новое реалити-шоу под названием «Пионерлагерь». По итогам кастинга, пятеро юношей и пятеро девушек, во главе с молодой телеведущей Алисой Тен, отправляются в заброшенный пионерский лагерь советских времен.

По правилам, каждую неделю кто-то из участников должен покинуть шоу и вернуться домой. Последний, кто останется на проекте, получит главный приз: один миллион рублей. Но внезапно правила игры меняются: невидимый наблюдатель объявляет, что теперь наградой для победителя будут не деньги, а его собственная жизнь.

Одержимый маньяк, скрывающий свое лицо за маской лошади, выходит на кровавую охоту за участниками реалити-шоу. Детские страшилки, которые он когда-то слушал в пионерлагере, оживают и становятся сюжетом его собственных убийств…

Качество: DVDRip
Формат: AVI
Видео кодек: XviD
Аудио кодек: AC3
Видео: 704x304 (2.32:1), 25 fps, XviD build 50 ~1639 kbps avg, 0.31 bit/pixel
Аудио#1: 48 kHz, AC3 Dolby Digital, 3/2 (L,C,R,l,r) + LFE ch, ~448.00 kbps avg



Общее
Полное имя : F:ЗакачкиS.S.D.2008.DVDRip.avi
Формат : AVI
Формат/Информация : Audio Video Interleave
Размер файла : 1,37 Гбайт
Продолжительность : 1 ч. 33 м.
Общий поток : 2097 Кбит/сек
Программа кодирования : VirtualDubMod 1.5.10.3 | www.virtualdub-fr.org || (build 2550/release)
Библиотека кодирования : VirtualDubMod build 2550/release

Видео
Идентификатор : 0
Формат : MPEG-4 Visual
Профиль формата : Advanced Simple@L5
Параметр BVOP формата : 2
Параметр QPel формата : Нет
Параметр GMC формата : Без точки перехода
Параметр матрицы формата : Default (H.263)
Идентификатор кодека : XVID
Идентификатор кодека/Подсказка : XviD
Продолжительность : 1 ч. 33 м.
Битрейт : 1640 Кбит/сек
Ширина : 704 пикселя
Высота : 304 пикселя
Соотношение сторон : 2,35:1
Частота кадров : 25,000 кадров/сек
Цветовое пространство : YUV
Субдискретизация насыщенности : 4:2:0
Битовая глубина : 8 бит
Тип развёртки : Прогрессивная
Метод сжатия : С потерями
Бит/(Пиксели*Кадры) : 0.306
Размер потока : 1,07 Гбайт (78%)
Библиотека кодирования : XviD 1.2.1 (UTC 2008-12-04)

Аудио
Идентификатор : 1
Формат : AC-3
Формат/Информация : Audio Coding 3
Расширение режима : CM (complete main)
Параметр Endianness формата : Big
Идентификатор кодека : 2000
Продолжительность : 1 ч. 33 м.
Вид битрейта : Постоянный
Битрейт : 448 Кбит/сек
Каналы : 6 каналов
Расположение каналов : Front: L C R, Side: L R, LFE
Частота : 48,0 КГц
Битовая глубина : 16 бит
Метод сжатия : С потерями
Размер потока : 299 Мбайт (21%)
Выравнивание : Разделение по промежуткам
Продолжительность промежутка : 40 мс. (1,00 видеокадр)
Время предзагрузки промежутка : 500 мс.

piratbit.cc



Скачать ССД: Смерть Советским Детям через торрент http://s8.uploads.ru/k8KVv.jpg Скачать фильм ССД: Смерть Советским Детям через торрент бесплантно в хорошем качестве Описание: На телевидении запускается новое реалити-шоу под названием «Пионерлагерь». По итогам кастинга, пятеро юношей и пятеро девушек, во ... 9.8 10 6
Info! Золотая раздача, скачанное не засчитывается.
Торрент: Зарегистрирован [2014-02-17 07:26] · скачан: 123 раз
Статус: √ проверено
Размер: 1.37 GB
Как cкачать? Как скачать ССД: Смерть Советским Детям через торрент | qTorrent

Раскрываю секрет как замутить 6000р. без напряга и вложений

Чтобы получить бонус нужно перейти по --> ссылке и зарегистрироваться
Получаем бесплатный бонус 3000р от казино, ставим все на красное
С вероятностью 50% вы выигрываете
Выводим деньги, идем за айфоном!!!
Если не получилось регаемся еще раз и пробуем еще раз, Автоматы настроены так что каждый второй выигрывает!!!

Не ну, а чего попробовать то можно, Вы же ничего не теряете!!!

17-02-2014 09:41 ССД: Смерть Советским Детям Скачать торрент  

бредятина редкаяpiratbit.cc



17-02-2014 09:52 ССД: Смерть Советским Детям Скачать торрент  

Боже всемогущий... :jest3:piratbit.cc



17-02-2014 10:57 ССД: Смерть Советским Детям Скачать торрент  

piratbit.cc



    Дорогой пользователь! Огромная просьба, поблагодарите релизера, оцените раздачу и оставьте свои комментарий, если Вы скачали ССД: Смерть Советским Детям через торрент бесплатно! Внесите свою лепту в развитие PiratBit!
    Комментировать посты могут только пользователи прошедшие не сложную регистрацию
    Показать сообщения:    

    ССД: Смерть Советским Детям через торрент
    Скачать бесплатно ССД: Смерть Советским Детям
    ССД: Смерть Советским Детям скачать торрент
    ССД: Смерть Советским Детям смотреть онлайн
    Cкачать фильм ССД: Смерть Советским Детям бесплатно
    ССД: Смерть Советским Детям скачать торрент в хорошем качестве
    ССД: Смерть Советским Детям смотреть онлайн бесплатно в хорошем качестве


    Вы не можете начинать темы
    Вы не можете отвечать на сообщения
    Вы не можете редактировать свои сообщения
    Вы не можете удалять свои сообщения
    Вы не можете голосовать в опросах
    Вы не можете прикреплять файлы к сообщениям
    Вы можете скачивать файлы