Лицензия

30

MVO

Как приручить дракона 3

11 сезон

1

1 сезон

гринч

iTunes

Стекло

iTunes

Клаустрофобы

8 сезон

Игра престолов

iTunes

Ральф против интернета Хит недели

ИГРА 18+

pack

ВАЖНО

!!Акция!!

Alien_RageХит недели

RePack

Resident Evil 21
pack

RePack

Metro:Exodus

!!Акция!!

Alien_Rage

RePack

fifa19

RePack

Assassins Creed: Odyssey

RePack

NEED FOR SPEED™ PAYBACK

3 сезон

9 сезон

Бесстыжие 9 сезон

Все сериалы

все сериалы на PB.wtf

RePack

FAR CRY 5
Ребята, критически не успеваем дособрать 3200р. для оплаты серверов за Март (всвязи с блокировками трафик упал в 3 раза), 1-2р., выручайте.
  

Барин (Николай Потапов) [2006, Россия, Украина, лирическая комедия, DVDRip] piratbit.cc

Барин через торрент piratbit.cc

Размер: 1.46 GB | Добавлен: 5 лет 11 мес. назад | Торрент скачан:141 раз
Скачать  

10-05-2013 05:43 Барин Скачать торрент  

Барин
Страна: Россия, Украина
Год выпуска: 2006
Жанр: лирическая комедия
Продолжительность: 01:38:39
Перевод: Не требуется
Субтиры: нет

Режиссер: Николай Потапов

В ролях: Павел Майков, Анна Кузина, Оксана Филоненко, Иван Бортник, Игорь Тихомиров, Андрей Павленко, Максим Коновалов, Юрий Дубровин, Сергей Гаврилюк, Александр Белина, Татьяна Камбурова, Ирина Андреева, Людмила Игнатенко, Леонид Микитенко, Ольга Орлова, Оксана Бобер, Тимофей Маскаленко, Александр Радько, Марина Исакова, Дэн Архипов

Описание: Собравшись на квартире именинника Никиты - успешного бизнесмена, - друзья перевозят его спящего на вертолёте в деревеньку, находящуюся в глухих лесах среди непроходимых болот. Сговорившись с местными крестьянами и наняв двух профессиональных актёров на роли приказчика и ключницы, они одевают всех жителей в костюмы крепостных крестьян начала XIX века. Очнувшийся Никита, видит себя в необычном костюме среди незнакомых людей, которые ему кланяются и называют не иначе как "барин Никита Петрович". Ему поначалу кажется, что он сошёл с ума, но хорошая игра актёров приводит его к убеждению, что он действительно провалился в прошлое...

Качество видео: DVDRip
Формат видео: AVI
Видео кодек: XviD
Аудио кодек: AC3
Видео: 720x544 (1.32:1), 25 fps, XviD build 73 ~1849 kbps avg, 0.19 bit/pixel
Аудио: 48 kHz, AC3 Dolby Digital, 2/0 (L,R) ch, ~256 kbps
Раздача от:
D:Барин_T01.avi
General
Complete name : D:Барин_T01.avi
Format : AVI
Format/Info : Audio Video Interleave
File size : 1.46 GiB
Duration : 1h 38mn
Overall bit rate : 2 114 Kbps
Writing application : VirtualDubMod 1.5.10.3 | www.virtualdub-fr.org || (build 2550/release)
Writing library : VirtualDubMod build 2550/release
Video #0
ID : 0
Format : MPEG-4 Visual
Format profile : Advanced Simple@L5
Format settings, BVOP : 1
Format settings, QPel : No
Format settings, GMC : No warppoints
Format settings, Matrix : Custom
Codec ID : XVID
Codec ID/Hint : XviD
Duration : 1h 38mn
Bit rate : 1 849 Kbps
Width : 720 pixels
Height : 544 pixels
Display aspect ratio : 1.32:1
Frame rate : 25.000 fps
Color space : YUV
Chroma subsampling : 4:2:0
Bit depth : 8 bits
Scan type : Progressive
Compression mode : Lossy
Bits/(Pixel*Frame) : 0.189
Stream size : 1.27 GiB (87%)
Writing library : XviD 73
Audio #1
ID : 1
Format : AC-3
Format/Info : Audio Coding 3
Mode extension : CM (complete main)
Format settings, Endianness : Big
Codec ID : 2000
Duration : 1h 38mn
Bit rate mode : Constant
Bit rate : 256 Kbps
Channel(s) : 2 channels
Channel positions : Front: L R
Sampling rate : 48.0 KHz
Bit depth : 16 bits
Compression mode : Lossy
Stream size : 181 MiB (12%)
Alignment : Split accross interleaves
Interleave, duration : 40 ms (1.00 video frame)
Interleave, preload duration : 500 ms
piratbit.cc



Скачать Барин через торрент http://i46.fastpic.ru/big/2013/0510/62/3d172dc503ca6a62d535d6dfedc66f62.jpg Скачать фильм Барин через торрент бесплантно в хорошем качестве Описание: Собравшись на квартире именинника Никиты - успешного бизнесмена, - друзья перевозят его спящего на вертолёте в деревеньку, ... 9.3 10 12
Info! Золотая раздача, скачанное не засчитывается.
Торрент: Зарегистрирован [2013-05-10 05:43] · скачан: 141 раз
Статус: √ проверено
Размер: 1.46 GB
Как cкачать? Как скачать Барин через торрент | qTorrent

% Раздел Тема Автор DL S | L
Фильмы (мультфильмы) cо спонсором показа (Новинки AVI/MKV) [ 3.74 GB ] Присяга / The Oath [2018 WEB-DL 720p] MVO [Официальный звук] bober100 Скачать
4 | 0
Фильмы (мультфильмы) cо спонсором показа (Новинки AVI/MKV) [ 1.37 GB ] Присяга / The Oath [2018 WEB-DLRip] MVO [Официальный звук] bober100 Скачать
1 | 0
T Фильмы (мультфильмы) cо спонсором показа (Новинки AVI/MKV) [ 3.53 GB ] Присяга / The Oath [2018 WEB-DL 720p] MVO ["Синема УС"] bober100 Скачать
1 | 0
T Фильмы (мультфильмы) cо спонсором показа (Новинки AVI/MKV) [ 1.37 GB ] Присяга / The Oath [2018 WEB-DLRip] MVO ["Синема УС"] bober100 Скачать
1 | 0
Наши сериалы [ 16.29 GB ] Тайны следствия / Сезон: 18 / Серии: 1-24 из 24 [2018 SATRip-AVC] aleksan55 Скачать
2 | 0
Короткометражные мультфильмы [ 1.09 GB ] Лукоморье. Сборник мультфильмов. [2006 СССР Россия мультфильм короткометражка DVDRip-AVC от AVP Studio] AVP Studio Скачать
7 | 0
Короткометражные мультфильмы [ 1.08 GB ] Лукоморье. Сборник мультфильмов. [2006 СССР Россия мультфильм короткометражка DVDRip от AVP Studio] AVP Studio Скачать
5 | 0
Раскрываю секрет как замутить 6000р. без напряга и вложений

Чтобы получить бонус нужно перейти по --> ссылке и зарегистрироваться
Получаем бесплатный бонус 3000р от казино, ставим все на красное
С вероятностью 50% вы выигрываете
Выводим деньги, идем за айфоном!!!
Если не получилось регаемся еще раз и пробуем еще раз, Автоматы настроены так что каждый второй выигрывает!!!

Не ну, а чего попробовать то можно, Вы же ничего не теряете!!!

17-05-2013 13:16 Барин Скачать торрент  

У меня показывает, что это 1-ая серия. Продолжение будет?
Сам не смотрел, жена сказалаpiratbit.cc



17-05-2013 13:35 Барин Скачать торрент  

Mr.Barracuda
Это не сериал а фильм, продолжения вообще нету :)piratbit.cc



18-05-2013 12:27 Барин Скачать торрент  

Спасибо! piratbit.cc



    Дорогой пользователь! Огромная просьба, поблагодарите релизера, оцените раздачу и оставьте свои комментарий, если Вы скачали Барин через торрент бесплатно! Внесите свою лепту в развитие PiratBit!
    Комментировать посты могут только пользователи прошедшие не сложную регистрацию
    Показать сообщения:    

    Барин через торрент
    Скачать бесплатно Барин
    Барин скачать торрент
    Барин смотреть онлайн
    Cкачать фильм Барин бесплатно
    Барин скачать торрент в хорошем качестве
    Барин смотреть онлайн бесплатно в хорошем качестве


    Вы не можете начинать темы
    Вы не можете отвечать на сообщения
    Вы не можете редактировать свои сообщения
    Вы не можете удалять свои сообщения
    Вы не можете голосовать в опросах
    Вы не можете прикреплять файлы к сообщениям
    Вы можете скачивать файлы