Лицензия

30

iTunes

мы

iTunes

1

1 сезон

Чернобыль

1 сезон

Ральф против интернета

MVO

Покемон. Детектив Пикачу

8 сезон

Игра престолов

iTunes

1+1

ИГРА 18+

pack

ВАЖНО

!!Акция!!

Alien_RageХит недели

RePack

Resident Evil 21
pack

RePack

Metro:Exodus

!!Акция!!

Alien_Rage

RePack

fifa19

RePack

Assassins Creed: Odyssey

RePack

NEED FOR SPEED™ PAYBACK

3 сезон

9 сезон

Бесстыжие 9 сезон

Все сериалы

все сериалы на PB.wtf

RePack

FAR CRY 5
Ребята, катастрофически не хватает 2730р. для оплаты серверов за МАЙ (всвязи с блокировками трафик упал в 3 раза), 1-2р., выручайте.
  

Живой (Александр Велединский) [2006 г., драма, детектив, военный, DVDRip] piratbit.cc

Живой через торрент piratbit.cc

Размер: 1.36 GB | Добавлен: 4 года 11 мес. назад | Торрент скачан:375 раз
Скачать  

07-07-2014 13:19 Живой Скачать торрент  

Живой
Год выпуска: 2006
Страна: Россия
Жанр: драма, детектив, военный
Продолжительность: 01:32:00
Субтитры: отсутствуют

Режиссер: Александр Велединский
Продюссер: Алексей Алякин, Сергей Члиянц, Вадим Горяинов
Сценарий: Игорь Порублев, Александр Велединский

В ролях: Ольга Арнтгольц, Алексей Чадов, Андрей Чадов, Максим Лагашкин, Александр Робак, Виктория Смирнова, Екатерина Волкова, Владимир Епифанцев, Алексей Горбунов, Нелли Неведина,

Описание: Кир — вернувшийся с чеченской войны солдат. Там, на войне он оставил полноги, и всех своих друзей-сослуживцев. Они спасли его ценой собственных жизней. Здесь Кира ждет мать и любимая девушка. Казалось, что та война для него окончилась, но эхо войны все еще не покидает голову парня. Пытаясь наладить жизнь, он не может избавиться от чувства вины. Призраки его погибших друзей ходят за ним по пятам. Что он должен сделать, чтобы они нашли покой? Может быть, ему просто стоит простить себя..?



Качество: DVDRip
Формат: AVI
Видео кодек: XviD
Аудио кодек: AC3
Видео: 672x352 (1.909), 25 fps ~ 1520 Kbps
Аудио#1: 48 KHz (16 bit), 6 ch ~ 384 Kb/s
Аудио#2: 48 KHz (16bit), 2 ch ~ 192 Kb/s
Общее
Полное имя : Q:\TorF\Живой.avi
Формат : AVI
Формат/Информация : Audio Video Interleave
Размер файла : 1,36 Гбайт
Продолжительность : 1 ч. 32 м.
Общий поток : 2112 Кбит/сек
Программа кодирования : VirtualDubMod 1.5.10.2 (build 2540/release)
Библиотека кодирования : VirtualDubMod build 2540/release

Видео
Идентификатор : 0
Формат : MPEG-4 Visual
Профиль формата : Advanced Simple@L5
Параметр BVOP формата : 2
Параметр QPel формата : Нет
Параметр GMC формата : Без точки перехода
Параметр матрицы формата : Default (H.263)
Режим смешивания : Сжатый битовый поток
Идентификатор кодека : XVID
Идентификатор кодека/Подсказка : XviD
Продолжительность : 1 ч. 32 м.
Битрейт : 1521 Кбит/сек
Ширина : 672 пикселя
Высота : 352 пикселя
Соотношение сторон : 1,909
Частота кадров : 25,000 кадров/сек
Цветовое пространство : YUV
Субдискретизация насыщенности : 4:2:0
Битовая глубина : 8 бит
Тип развёртки : Прогрессивная
Метод сжатия : С потерями
Бит/(Пиксели*Кадры) : 0.257
Размер потока : 1004 Мбайт (72%)
Библиотека кодирования : XviD 1.2.0SMP (UTC 2006-01-08)

Аудио #1
Идентификатор : 1
Формат : AC-3
Формат/Информация : Audio Coding 3
Расширение режима : CM (complete main)
Идентификатор кодека : 2000
Продолжительность : 1 ч. 32 м.
Вид битрейта : Постоянный
Битрейт : 384 Кбит/сек
Каналы : 6 каналов
Расположение каналов : Front: L C R, Side: L R, LFE
Частота : 48,0 КГц
Битовая глубина : 16 бит
Метод сжатия : С потерями
Размер потока : 253 Мбайт (18%)
Выравнивание : Разделение по промежуткам
Продолжительность промежутка : 40 мс. (1,00 видеокадр)
Время предзагрузки промежутка : 500 мс.

Аудио #2
Идентификатор : 2
Формат : AC-3
Формат/Информация : Audio Coding 3
Расширение режима : CM (complete main)
Идентификатор кодека : 2000
Продолжительность : 1 ч. 32 м.
Вид битрейта : Постоянный
Битрейт : 192 Кбит/сек
Каналы : 2 канала
Расположение каналов : Front: L R
Частота : 48,0 КГц
Битовая глубина : 16 бит
Метод сжатия : С потерями
Размер потока : 127 Мбайт (9%)
Выравнивание : Разделение по промежуткам
Продолжительность промежутка : 40 мс. (1,00 видеокадр)
Время предзагрузки промежутка : 500 мс.


Живой скачать торрент


piratbit.cc



Скачать Живой через торрент http://pic.kartinco.top/images/6/79vyf.jpg Скачать фильм Живой через торрент бесплантно в хорошем качестве Описание: Кир — вернувшийся с чеченской войны солдат. Там, на войне он оставил полноги, и всех своих друзей-сослуживцев. Они спасли его ... 10 10 15
Info! Золотая раздача, скачанное не засчитывается.
Торрент: Зарегистрирован [2014-07-07 13:19] · скачан: 375 раз
Статус: √ проверено
Размер: 1.36 GB
Как cкачать? Как скачать Живой через торрент | qTorrent

% Раздел Тема Автор DL S | L
Наши фильмы (HD, WEB-DL 720p, 1080p) [ 7.95 GB ] Высоцкий. Спасибо что живой [2011 биография BDRip ] Anonymous Скачать
1 | 0
Наши фильмы (HD, WEB-DL 720p, 1080p) [ 15.16 GB ] Высоцкий. Спасибо что живой [2011 биография BDRip ] Res Скачать
1 | 0
Остаться в Живых (LOST) [ 18.13 GB ] Остаться в Живых / LOST [2004 BDRip HQ] [DD5.1+DD2.0] ОРТ+Tycoon Joup Скачать
3 | 0
Приключения, Квесты, Логические [ 1.64 GB ] Остаться в живых / Lost: Via Domus [лицензияRUNoName] Shmel Скачать
1 | 0
Остаться в Живых (LOST) [ 15.8 GB ] Остаться в Живых / LOST [2007 BDRip HQ] [DD5.1+DD2.0] ОРТ+Lostfilm Joup Скачать
2 | 0
Наши фильмы 2010-2011 [ 1.37 GB ] Высоцкий. Спасибо что живой [2011 биография DVDRip лицензия] Чупачупсик Скачать
1 | 0
Остаться в Живых (LOST) [ 15.53 GB ] Остаться в Живых / LOST [2005 BDRip HQ] [DD2.0+DD2.0] ОРТ+Tycoon Joup Скачать
1 | 0


>> Регистрируемся здесь <<






Отзывы и комментарии о схеме читаем и пишем здесь: ---> Отзывы и комментарии о схеме

Новые благодарочки в телеграм довольных пользователей:
скриншот   скриншот   скриншот   скриншот   скриншот

07-07-2014 17:11 Живой Скачать торрент  

Спасибо. Надо пересмотреть. И помянуть братишек, которые остались ТАМ.piratbit.cc



    Дорогой пользователь! Огромная просьба, поблагодарите релизера, оцените раздачу и оставьте свои комментарий, если Вы скачали Живой через торрент бесплатно! Внесите свою лепту в развитие PiratBit!
    Комментировать посты могут только пользователи прошедшие не сложную регистрацию
    Показать сообщения:    

    Живой через торрент
    Скачать бесплатно Живой
    Живой скачать торрент
    Живой смотреть онлайн
    Cкачать фильм Живой бесплатно
    Живой скачать торрент в хорошем качестве
    Живой смотреть онлайн бесплатно в хорошем качестве


    Вы не можете начинать темы
    Вы не можете отвечать на сообщения
    Вы не можете редактировать свои сообщения
    Вы не можете удалять свои сообщения
    Вы не можете голосовать в опросах
    Вы не можете прикреплять файлы к сообщениям
    Вы можете скачивать файлы