Лицензия

30

MVO

Как приручить дракона 3

11 сезон

1

1 сезон

гринч

iTunes

Стекло

iTunes

Клаустрофобы

8 сезон

Игра престолов

iTunes

Ральф против интернета Хит недели

ИГРА 18+

pack

ВАЖНО

!!Акция!!

Alien_RageХит недели

RePack

Resident Evil 21
pack

RePack

Metro:Exodus

!!Акция!!

Alien_Rage

RePack

fifa19

RePack

Assassins Creed: Odyssey

RePack

NEED FOR SPEED™ PAYBACK

3 сезон

9 сезон

Бесстыжие 9 сезон

Все сериалы

все сериалы на PB.wtf

RePack

FAR CRY 5
Ребята, критически не успеваем дособрать 3200р. для оплаты серверов за Март (всвязи с блокировками трафик упал в 3 раза), 1-2р., выручайте.
  

Аврора (Оксана Байрак) [2006 г., Драма, DVDRip] piratbit.cc

Аврора через торрент piratbit.cc

Размер: 1.46 GB | Добавлен: 4 года 8 мес. назад | Торрент скачан:62 раза
Скачать  

04-08-2014 12:08 Аврора Скачать торрент  

Аврора
«Посвящается трагедии на Чернобыльской АЭС 1986 года»

Год выпуска: 2006
Страна: Украина
Жанр:драма
Продолжительность:01:47:23
Перевод:Не требуется (Русский)
Режиссер:Оксана Байрак

  • В ролях:

    Дмитрий Харатьян (Николай Астахов), Эрик Робертс (Джеймс), Анастасия Зюркалова (Аврора), Анастасия Меськова (Марго, танцовщица), Виктор Степанов (Савченко-старший), Римма Зюбина (Анастасия Савченко), Олег Масленников (Тарас Савченко), Анастасия Сердюк (Наталья), Владимир Горянский (доктор Валевич), Екатерина Качан (Екатерина), Владимир Герасимов (Богдан Савченко), Алла Масленникова (доктор Лариса Ивановна)

  • Описание:
    Аврора - воспитанница детдома на окраине Припяти. Она обожает танцевать и мечтает стать балериной. Во время катастрофы на Чернобыльской атомной электростанции девочка получает огромную дозу облучения. Единственный шанс на выживание - дорогостоящая операция в США.
    Аврору отправляют в Америку, где в больнице она встречает своего кумира, звезду советского, а затем американского балета, Ника Астахова, переживающего глубокий творческий кризис. Встреча с умирающим ребенком, который грезит о балетной сцене, помогает артисту изменить свою жизнь...

  • Мировая премьера:30 ноября 2006


      Качество: DVDRip
      Формат:AVI
      Видео кодек: XviD
      Аудио кодек:AC3
      Видео: 720x304 (2.35:1), 1487 kbps, 25 fps
      Аудио: 5.1/ 48 kHz/ 448 kbps/ AC3


    Код:

    General
    Complete name                            : D:\Торенты\Avrora.2006_.avi
    Format                                   : AVI
    Format/Info                              : Audio Video Interleave
    File size                                : 1.46 GiB
    Duration                                 : 1h 47mn
    Overall bit rate                         : 1 945 Kbps
    Movie name                               : Аврора
    Director                                 : zim2001
    Writing application                      : VirtualDubMod 1.5.10.2 (build 2540/release)
    Copyright                                : torrents.ru

    Video
    ID                                       : 0
    Format                                   : MPEG-4 Visual
    Format profile                           : Advanced Simple@L5
    Format settings, BVOP                    : 1
    Format settings, QPel                    : No
    Format settings, GMC                     : No warppoints
    Format settings, Matrix                  : Custom
    Codec ID                                 : XVID
    Codec ID/Hint                            : XviD
    Duration                                 : 1h 47mn
    Bit rate                                 : 1 487 Kbps
    Width                                    : 720 pixels
    Height                                   : 304 pixels
    Display aspect ratio                     : 2.35:1
    Frame rate                               : 25.000 fps
    Color space                              : YUV
    Chroma subsampling                       : 4:2:0
    Bit depth                                : 8 bits
    Scan type                                : Progressive
    Compression mode                         : Lossy
    Bits/(Pixel*Frame)                       : 0.272
    Stream size                              : 1.12 GiB (76%)
    Writing library                          : XviD 1.2.1 (UTC 2008-12-04)

    Audio
    ID                                       : 1
    Format                                   : AC-3
    Format/Info                              : Audio Coding 3
    Mode extension                           : CM (complete main)
    Codec ID                                 : 2000
    Duration                                 : 1h 47mn
    Bit rate mode                            : Constant
    Bit rate                                 : 448 Kbps
    Channel(s)                               : 6 channels
    Channel positions                        : Front: L C R, Side: L R, LFE
    Sampling rate                            : 48.0 KHz
    Bit depth                                : 16 bits
    Compression mode                         : Lossy
    Stream size                              : 344 MiB (23%)
    Alignment                                : Split accross interleaves
    Interleave, duration                     : 40 ms (1.00 video frame)
    Interleave, preload duration             : 500 ms

    Скриншоты:

    Каталог Новинок (Фильмы-трейлеры, Игры, Сериалы, Мультфильмы)

    © Оформление by Raven
    piratbit.cc



  • Скачать Аврора через торрент http://i68.fastpic.ru/big/2014/0804/31/3ec71be4ea1555dd41f9a5b1e7d68231.png Скачать фильм Аврора через торрент бесплантно в хорошем качестве Описание:Аврора - воспитанница детдома на окраине Припяти. Она обожает танцевать и мечтает стать балериной. Во время катастрофы на ... 10 10 5
    Торрент: Зарегистрирован [2014-08-04 12:08] · скачан: 62 раз
    Статус: √ проверено
    Размер: 1.46 GB
    Как cкачать? Как скачать Аврора через торрент | qTorrent

    % Раздел Тема Автор DL S | L
    T Фильмы (мультфильмы) cо спонсором показа (Новинки AVI/MKV) [ 2.87 GB ] Тайна Авроры Тигарден: Проблемный сверток / A Bundle of Trouble: An Aurora Teagarden Mystery [2017 HDTVRip 720p] MVO ["Синема УС"] bober100 Скачать
    1 | 0
    T Фильмы (мультфильмы) cо спонсором показа (Новинки AVI/MKV) [ 1.37 GB ] Тайна Авроры Тигарден: Проблемный сверток / A Bundle of Trouble: An Aurora Teagarden Mystery [2017 HDTVRip] MVO ["Синема УС"] bober100 Скачать
    1 | 0
    Фантастика [ 757 MB ] Ким Стэнли Робинсон - Аврора [Максим Суслов 2018 128 kbps MP3] bober100 Скачать
    1 | 0
    Наши сериалы [ 2.1 GB ] Перчатка Авроры / Серии: 1-4 из 4 [2016 SATRip-AVC] aleksan55 Скачать
    1 | 0
    Обои для рабочего стола [ 1.74 GB ] Фотографии - Эрмитаж. Медали и монеты Петровского времени [Аврора] [5065x3650] [33шт.] JPG PNG Ворон Скачать
    1 | 0
    Разное [ 243 MB ] Аура Авроры / Aura of aurora [2013 All sex SATRip] sheker187 Скачать
    1 | 0
    Раскрываю секрет как замутить 6000р. без напряга и вложений

    Чтобы получить бонус нужно перейти по --> ссылке и зарегистрироваться
    Получаем бесплатный бонус 3000р от казино, ставим все на красное
    С вероятностью 50% вы выигрываете
    Выводим деньги, идем за айфоном!!!
    Если не получилось регаемся еще раз и пробуем еще раз, Автоматы настроены так что каждый второй выигрывает!!!

    Не ну, а чего попробовать то можно, Вы же ничего не теряете!!!

      Дорогой пользователь! Огромная просьба, поблагодарите релизера, оцените раздачу и оставьте свои комментарий, если Вы скачали Аврора через торрент бесплатно! Внесите свою лепту в развитие PiratBit!
      Комментировать посты могут только пользователи прошедшие не сложную регистрацию
      Показать сообщения:    

      Аврора через торрент
      Скачать бесплатно Аврора
      Аврора скачать торрент
      Аврора смотреть онлайн
      Cкачать фильм Аврора бесплатно
      Аврора скачать торрент в хорошем качестве
      Аврора смотреть онлайн бесплатно в хорошем качестве


      Вы не можете начинать темы
      Вы не можете отвечать на сообщения
      Вы не можете редактировать свои сообщения
      Вы не можете удалять свои сообщения
      Вы не можете голосовать в опросах
      Вы не можете прикреплять файлы к сообщениям
      Вы можете скачивать файлы