Лицензия

30

iTunes

мы

iTunes

1

1 сезон

Чернобыль

1 сезон

Ральф против интернета

MVO

Покемон. Детектив Пикачу

8 сезон

Игра престолов

iTunes

1+1

ИГРА 18+

pack

ВАЖНО

!!Акция!!

Alien_RageХит недели

RePack

Resident Evil 21
pack

RePack

Metro:Exodus

!!Акция!!

Alien_Rage

RePack

fifa19

RePack

Assassins Creed: Odyssey

RePack

NEED FOR SPEED™ PAYBACK

3 сезон

9 сезон

Бесстыжие 9 сезон

Все сериалы

все сериалы на PB.wtf

RePack

FAR CRY 5
Ребята, катастрофически не хватает 2730р. для оплаты серверов за МАЙ (всвязи с блокировками трафик упал в 3 раза), 1-2р., выручайте.
  

Настройщик (Кира Муратова) [2004, Россия, Украина, драма, комедия, криминал, DVDRip, Оригинальный] piratbit.cc

Настройщик через торрент piratbit.cc

Размер: 2.2 GB | Добавлен: 4 года 9 мес. назад | Торрент скачан:63 раза
Скачать  

23-08-2014 21:58 Настройщик Скачать торрент  

Настройщик

Год выпуска: 2004
Страна: Россия, Украина
Жанр: драма, комедия, криминал

Продолжительность: 02:35:17
Перевод: Оригинальный
Субтитры: Нет
Режиссер: Кира Муратова
В ролях: Георгий Делиев (настройщик Андрюша), Алла Демидова (Анна Сергеевна), Рената Литвинова (Лина), Нина Русланова (Люба), Сергей Бехтерев (аферист), Наталья Бузько (работница платного туалета Таня), Жан Даниэль (муж Тани), Владимир Комаров, Алексей Павловский, Юрий Шлыков (мужчина, желающий познакомиться), Ольга Попова, Михаил Волошин
Описание:
Картина представляет собой современную интерпретацию мемуаров знаменитого российского сыщика царских времен Аркадия Кошко. Главный герой - настройщик роялей Андрюша - одновременно счастливейший и несчастнейший человек на свете. Счастливейший - потому что он страстно влюблен в самую прекрасную из женщин - Лину, причем она отвечает ему взаимностью. Но Андрей - увы - беден, тогда как Лина, избалованная дочка богатых родителей, привыкла жить в достатке и роскоши.
Казалось, влюбленный до безумия герой обречен страдать вечно. На какие только ухищрения не идет бедный настройщик, чтобы обеспечить своей возлюбленной достойное существование! Чем он только не занимается! Но честный труд не приносит ничего, кроме жалких крох... И вот его страсть приобретает совсем нездоровый оттенок. Любовь к изнеженной блондинке вынуждает Андрюшу переступить роковую черту: и он готов пойти на все - предать украсть, и даже ...убить!
Рейтинг


Качество: DVDRip
Формат: AVI
Видео кодек: XviD
Аудио кодек:AC3
Видео: XviD, 720x384 (1.875), 1635 kbps, 25 fps, 0,237 bpp
Аудио: AC3 / 5.1 / 48 kHz / 384 kbps / 16 bit
Фильм черно-белый.
Общее
Полное имя : E:\ФИЛЬМЫ\Nastrojwik.2004.XviD.DVDRip.avi
Формат : AVI
Формат/Информация : Audio Video Interleave
Профиль формата : OpenDML
Размер файла : 2,20 Гбайт
Продолжительность : 2 ч. 35 м.
Общий поток : 2032 Кбит/сек
Программа кодирования : VirtualDubMod 1.5.10.2 (build 2540/release)
Библиотека кодирования : VirtualDubMod build 2540/release

Видео
Идентификатор : 0
Формат : MPEG-4 Visual
Профиль формата : Advanced Simple@L5
Параметр BVOP формата : 1
Параметр QPel формата : Нет
Параметр GMC формата : Без точки перехода
Параметр матрицы формата : Default (H.263)
Идентификатор кодека : XVID
Идентификатор кодека/Подсказка : XviD
Продолжительность : 2 ч. 35 м.
Битрейт : 1636 Кбит/сек
Ширина : 720 пикселей
Высота : 384 пикселя
Соотношение сторон : 1,85:1
Частота кадров : 25,000 кадров/сек
Цветовое пространство : YUV
Субдискретизация насыщенности : 4:2:0
Битовая глубина : 8 бит
Тип развёртки : Прогрессивная
Метод сжатия : С потерями
Бит/(Пиксели*Кадры) : 0.237
Размер потока : 1,77 Гбайт (80%)
Библиотека кодирования : XviD 1.2.1 (UTC 2008-12-04)

Аудио
Идентификатор : 1
Формат : AC-3
Формат/Информация : Audio Coding 3
Расширение режима : CM (complete main)
Параметр Endianness формата : Big
Идентификатор кодека : 2000
Продолжительность : 2 ч. 35 м.
Вид битрейта : Постоянный
Битрейт : 384 Кбит/сек
Каналы : 6 каналов
Расположение каналов : Front: L C R, Side: L R, LFE
Частота : 48,0 КГц
Битовая глубина : 16 бит
Метод сжатия : С потерями
Размер потока : 427 Мбайт (19%)
Выравнивание : Разделение по промежуткам
Продолжительность промежутка : 40 мс. (1,00 видеокадр)
Время предзагрузки промежутка : 500 мс.
piratbit.cc



Скачать Настройщик через торрент http://pic.kartinco.top/new/img/2014-08/23/61gosa48hb804urbypxv8jx1n.jpg Скачать фильм Настройщик через торрент бесплантно в хорошем качестве Описание: Картина представляет собой современную интерпретацию мемуаров знаменитого российского сыщика царских времен Аркадия Кошко. ... 9 10 5
Торрент: Зарегистрирован [2014-08-23 21:58] · скачан: 63 раз
Статус: √ проверено
Размер: 2.2 GB
Как cкачать? Как скачать Настройщик через торрент | qTorrent


>> Регистрируемся здесь <<






Отзывы и комментарии о схеме читаем и пишем здесь: ---> Отзывы и комментарии о схеме

Новые благодарочки в телеграм довольных пользователей:
скриншот   скриншот   скриншот   скриншот   скриншот
    Дорогой пользователь! Огромная просьба, поблагодарите релизера, оцените раздачу и оставьте свои комментарий, если Вы скачали Настройщик через торрент бесплатно! Внесите свою лепту в развитие PiratBit!
    Комментировать посты могут только пользователи прошедшие не сложную регистрацию
    Показать сообщения:    

    Настройщик через торрент
    Скачать бесплатно Настройщик
    Настройщик скачать торрент
    Настройщик смотреть онлайн
    Cкачать фильм Настройщик бесплатно
    Настройщик скачать торрент в хорошем качестве
    Настройщик смотреть онлайн бесплатно в хорошем качестве


    Вы не можете начинать темы
    Вы не можете отвечать на сообщения
    Вы не можете редактировать свои сообщения
    Вы не можете удалять свои сообщения
    Вы не можете голосовать в опросах
    Вы не можете прикреплять файлы к сообщениям
    Вы можете скачивать файлы