iTunes

1+1

iTunes

мы

iTunes

1

iTunes

Чернобыль

1 сезон

Ральф против интернета

Лицензия

ПШазам

Лицензия

Игра престолов

Лицензия

30
pack

ВАЖНО

!!Акция!!

Alien_RageХит недели

RePack

Resident Evil 21

ИГРА 18+

pack

RePack

Metro:Exodus

!!Акция!!

Alien_Rage

RePack

fifa19

RePack

Assassins Creed: Odyssey

RePack

NEED FOR SPEED™ PAYBACK

3 сезон

9 сезон

Бесстыжие 9 сезон

Все сериалы

все сериалы на PB.wtf

RePack

FAR CRY 5
Ребята, катастрофически не хватает 7730р. для оплаты серверов за ИЮЛЬ (всвязи с блокировками трафик упал в 3 раза), 1-2р., выручайте.
  

Итальянец (Андрей Кравчук) [2005, Россия, драма, DVDRip, Оригинальный] piratbit.cc

Итальянец через торрент piratbit.cc

Размер: 1.36 GB | Добавлен: 4 года 11 мес. назад | Торрент скачан:156 раз
Скачать  

24-08-2014 10:33 Итальянец Скачать торрент  

Итальянец

Год выпуска: 2005
Страна: Россия
Жанр: драма

Продолжительность: 01:38:54
Перевод: Оригинальный
Субтитры: Нет
Режиссер: Андрей Кравчук
В ролях: Коля Спиридонов (Ваня Солнцев), Мария Кузнецова (мадам Жанна), Николай Реутов (Гриша), Юрий Ицков (директор), Денис Моисеенко (Колян), Саша Сироткин (Серый), Полина Воробьева (Натаха), Ольга Ероховец (Ирка), Дима Землянко (Антон), Дарья Юргенс (мать Мухина), Рудольф Кульд (сторож), Владимир Шипов (Вован)
Описание:
Шестилетнего Ваню, воспитанника детдома, собирается усыновить итальянская семья - отсюда его прозвище «итальянец». Впереди - безоблачная жизнь под средиземноморским солнцем, но мальчик во что бы то ни стало хочет найти свою родную мать.
Рейтинг



Качество: DVDRip
Формат: AVI
Видео кодек: XviD
Аудио кодек:AC3
Видео: XviD, 656x384 (16:9), 1516 kbps, 23,976 fps, 0,251 bpp
Аудио: AC3 / 5.1 / 48 kHz / 448 kbps / 16 bit

Общее
Полное имя : E:\ФИЛЬМЫ\Italianets-rus.avi
Формат : AVI
Формат/Информация : Audio Video Interleave
Размер файла : 1,36 Гбайт
Продолжительность : 1 ч. 38 м.
Общий поток : 1974 Кбит/сек
Программа кодирования : VirtualDubMod 1.5.10.2 (build 2542/release)
Библиотека кодирования : VirtualDubMod build 2542/release

Видео
Идентификатор : 0
Формат : MPEG-4 Visual
Профиль формата : Advanced Simple@L5
Параметр BVOP формата : 2
Параметр QPel формата : Нет
Параметр GMC формата : Без точки перехода
Параметр матрицы формата : Default (H.263)
Идентификатор кодека : XVID
Идентификатор кодека/Подсказка : XviD
Продолжительность : 1 ч. 38 м.
Битрейт : 1517 Кбит/сек
Ширина : 656 пикселей
Высота : 384 пикселя
Соотношение сторон : 1,708
Частота кадров : 23,976 кадра/сек
Цветовое пространство : YUV
Субдискретизация насыщенности : 4:2:0
Битовая глубина : 8 бит
Тип развёртки : Прогрессивная
Метод сжатия : С потерями
Бит/(Пиксели*Кадры) : 0.251
Размер потока : 1,05 Гбайт (77%)
Библиотека кодирования : XviD 1.1.0 (UTC 2005-11-22)

Аудио
Идентификатор : 1
Формат : AC-3
Формат/Информация : Audio Coding 3
Расширение режима : CM (complete main)
Параметр Endianness формата : Big
Идентификатор кодека : 2000
Продолжительность : 1 ч. 38 м.
Вид битрейта : Постоянный
Битрейт : 448 Кбит/сек
Каналы : 6 каналов
Расположение каналов : Front: L C R, Side: L R, LFE
Частота : 48,0 КГц
Битовая глубина : 16 бит
Метод сжатия : С потерями
Размер потока : 317 Мбайт (23%)
Выравнивание : Разделение по промежуткам
Продолжительность промежутка : 42 мс. (1,00 видеокадр)
Время предзагрузки промежутка : 500 мс.
piratbit.cc



Скачать Итальянец через торрент http://pic.kartinco.top/new/img/2014-08/24/yvzdy2qjp2d3t7q39c81phwuh.jpg Скачать фильм Итальянец через торрент бесплантно в хорошем качестве Описание: Шестилетнего Ваню, воспитанника детдома, собирается усыновить итальянская семья - отсюда его прозвище «итальянец». Впереди - ... 10 10 7
Торрент: Зарегистрирован [2014-08-24 10:33] · скачан: 156 раз
Статус: √ проверено
Размер: 1.36 GB
Как cкачать? Как скачать Итальянец через торрент | qTorrent

% Раздел Тема Автор DL S | L
Фильмы 2010 [ 1.46 GB ] Итальянец / L'Italien [2010 HDRip] [MVO] killermax2013 Скачать
1 | 0


>> Регистрируемся здесь <<






Отзывы и комментарии о схеме читаем и пишем здесь: ---> Отзывы и комментарии о схеме

Новые благодарочки в телеграм довольных пользователей:
скриншот   скриншот   скриншот   скриншот   скриншот
    Дорогой пользователь! Огромная просьба, поблагодарите релизера, оцените раздачу и оставьте свои комментарий, если Вы скачали Итальянец через торрент бесплатно! Внесите свою лепту в развитие PiratBit!
    Комментировать посты могут только пользователи прошедшие не сложную регистрацию
    Показать сообщения:    

    Итальянец через торрент
    Скачать бесплатно Итальянец
    Итальянец скачать торрент
    Итальянец смотреть онлайн
    Cкачать фильм Итальянец бесплатно
    Итальянец скачать торрент в хорошем качестве
    Итальянец смотреть онлайн бесплатно в хорошем качестве


    Вы не можете начинать темы
    Вы не можете отвечать на сообщения
    Вы не можете редактировать свои сообщения
    Вы не можете удалять свои сообщения
    Вы не можете голосовать в опросах
    Вы не можете прикреплять файлы к сообщениям
    Вы можете скачивать файлы