Лицензия

30

iTunes

мы

iTunes

1

1 сезон

Чернобыль

1 сезон

Ральф против интернета

MVO

Покемон. Детектив Пикачу

8 сезон

Игра престолов

iTunes

1+1

ИГРА 18+

pack

ВАЖНО

!!Акция!!

Alien_RageХит недели

RePack

Resident Evil 21
pack

RePack

Metro:Exodus

!!Акция!!

Alien_Rage

RePack

fifa19

RePack

Assassins Creed: Odyssey

RePack

NEED FOR SPEED™ PAYBACK

3 сезон

9 сезон

Бесстыжие 9 сезон

Все сериалы

все сериалы на PB.wtf

RePack

FAR CRY 5
Ребята, катастрофически не хватает 2730р. для оплаты серверов за МАЙ (всвязи с блокировками трафик упал в 3 раза), 1-2р., выручайте.
  

Двойная фамилия (Станислав Митин) [2006, Россия, Казахстан, драма, DVDRip, Оригинальный] piratbit.cc

Двойная фамилия через торрент piratbit.cc

Размер: 1.46 GB | Добавлен: 4 года 9 мес. назад | Торрент скачан:118 раз
Скачать  

24-08-2014 11:27 Двойная фамилия Скачать торрент  

Двойная фамилия

Год выпуска: 2006
Страна: Россия, Казахстан
Жанр: драма

Продолжительность: 01:32:34
Перевод: Оригинальный
Субтитры: Нет
Режиссер: Станислав Митин
В ролях: Сергей Барковский (Виктор), Оксана Базилевич (Марина), Олег Штефанко (Георгий Воздвиженский), Мария Мещерякова, Татьяна Мишина (врач скорой), Миша Кожеуров (маленький Филипп), Вячеслав Коробицын (Филипп в 16 лет)
Описание:
У супругов Воздвиженских очень долго - в течение восьми лет - не было детей. Когда же наконец у них родился сын Филипп, глава семьи узнал, что этот ребенок не от него. Воздвиженский решает уйти из дома, однако жалость к беспомощной жене и малышу не позволяет ему это сделать. С каждым днем в нем усиливаются отцовские чувства, и в конце концов Воздвиженский так привязывается к ребенку, что не может жить без него.
Но он не в состоянии простить жене измену и остается с ней только ради мальчика, которого любит как родного сына. Однако спустя пять лет этот семейный союз все же окончательно распадается: жена Воздвиженского уходит к отцу ребенка, пообещав своему бывшему мужу, что мальчик будет носить его фамилию, правду же о своем появлении на свет он узнает только после смерти одного из мужчин...
Рейтинг

imdb.com: 6.80 (12)
Качество: DVDRip
Формат: AVI
Видео кодек: XviD
Аудио кодек:AC3
Видео: XviD, 672x384 (16:9), 2050 kbps, 25 fps, 0,318 bpp
Аудио: AC3 / 2.0 / 48 kHz / 192 kbps / 16 bit

General
Complete name : E:\ФИЛЬМЫ\dvoinaya.familiya.2006.dvdrip.avi
Format : AVI
Format/Info : Audio Video Interleave
File size : 1.46 GiB
Duration : 1h 32mn
Overall bit rate : 2 252 Kbps
Writing application : VirtualDubMod 1.5.10.3 |(build 2550/release)
Writing library : VirtualDubMod build 2550/release

Video
ID : 0
Format : MPEG-4 Visual
Format profile : Advanced Simple@L5
Format settings, BVOP : 1
Format settings, QPel : No
Format settings, GMC : No warppoints
Format settings, Matrix : Custom
Codec ID : XVID
Codec ID/Hint : XviD
Duration : 1h 32mn
Bit rate : 2 050 Kbps
Width : 672 pixels
Height : 384 pixels
Display aspect ratio : 16:9
Frame rate : 25.000 fps
Color space : YUV
Chroma subsampling : 4:2:0
Bit depth : 8 bits
Scan type : Progressive
Compression mode : Lossy
Bits/(Pixel*Frame) : 0.318
Stream size : 1.33 GiB (91%)
Writing library : XviD 65

Audio
ID : 1
Format : AC-3
Format/Info : Audio Coding 3
Mode extension : CM (complete main)
Codec ID : 2000
Duration : 1h 32mn
Bit rate mode : Constant
Bit rate : 192 Kbps
Channel(s) : 2 channels
Channel positions : Front: L R
Sampling rate : 48.0 KHz
Bit depth : 16 bits
Compression mode : Lossy
Stream size : 127 MiB (9%)
Alignment : Split accross interleaves
Interleave, duration : 40 ms (1.00 video frame)
Interleave, preload duration : 500 ms
piratbit.cc



Скачать Двойная фамилия через торрент http://pic.kartinco.top/new/img/2014-08/24/zse2pi587vi7ixf7h325twn8s.jpg Скачать фильм Двойная фамилия через торрент бесплантно в хорошем качестве Описание: У супругов Воздвиженских очень долго - в течение восьми лет - не было детей. Когда же наконец у них родился сын Филипп, глава ... 8.4 10 5
Торрент: Зарегистрирован [2014-08-24 11:27] · скачан: 118 раз
Статус: √ проверено
Размер: 1.46 GB
Как cкачать? Как скачать Двойная фамилия через торрент | qTorrent


>> Регистрируемся здесь <<






Отзывы и комментарии о схеме читаем и пишем здесь: ---> Отзывы и комментарии о схеме

Новые благодарочки в телеграм довольных пользователей:
скриншот   скриншот   скриншот   скриншот   скриншот

24-08-2014 12:36 Двойная фамилия Скачать торрент  

Не хочу никого дискриминировать, но описание чертовски хорошее для русского фильма, учитывая причастность казахстана, но я полагаю что это лишь место где проводились съемки.piratbit.cc



24-08-2014 12:41 Двойная фамилия Скачать торрент  

Почитав описание кино уже можно не смотретьpiratbit.cc



24-08-2014 13:07 Двойная фамилия Скачать торрент  

mrAmerica писал(а):

Почитав описание кино уже можно не смотреть

Никто не заставляет)))piratbit.cc



    Дорогой пользователь! Огромная просьба, поблагодарите релизера, оцените раздачу и оставьте свои комментарий, если Вы скачали Двойная фамилия через торрент бесплатно! Внесите свою лепту в развитие PiratBit!
    Комментировать посты могут только пользователи прошедшие не сложную регистрацию
    Показать сообщения:    

    Двойная фамилия через торрент
    Скачать бесплатно Двойная фамилия
    Двойная фамилия скачать торрент
    Двойная фамилия смотреть онлайн
    Cкачать фильм Двойная фамилия бесплатно
    Двойная фамилия скачать торрент в хорошем качестве
    Двойная фамилия смотреть онлайн бесплатно в хорошем качестве


    Вы не можете начинать темы
    Вы не можете отвечать на сообщения
    Вы не можете редактировать свои сообщения
    Вы не можете удалять свои сообщения
    Вы не можете голосовать в опросах
    Вы не можете прикреплять файлы к сообщениям
    Вы можете скачивать файлы