Лицензия

30

iTunes

Как приручить дракона 3

11 сезон

1

1 сезон

гринч

iTunes

Стекло

iTunes

Клаустрофобы

8 сезон

Игра престолов

iTunes

Ральф против интернета Хит недели

ИГРА 18+

pack

ВАЖНО

!!Акция!!

Alien_RageХит недели

RePack

Resident Evil 21
pack

RePack

Metro:Exodus

!!Акция!!

Alien_Rage

RePack

fifa19

RePack

Assassins Creed: Odyssey

RePack

NEED FOR SPEED™ PAYBACK

3 сезон

9 сезон

Бесстыжие 9 сезон

Все сериалы

все сериалы на PB.wtf

RePack

FAR CRY 5
Ребята, критически не успеваем дособрать 3200р. для оплаты серверов за Март (всвязи с блокировками трафик упал в 3 раза), 1-2р., выручайте.
  

Механическая сюита (Дмитрий Месхиев) [2001 г., драма, комедия, DVDRip] piratbit.cc

Механическая сюита через торрент piratbit.cc

Размер: 1.37 GB | Добавлен: 4 года 6 мес. назад | Торрент скачан:191 раз
Скачать  

03-10-2014 16:13 Механическая сюита Скачать торрент  

Механическая сюита«Не так просто избавиться от трупа, но еще сложнее получить деньги»Год выпуска: 2001
Страна: Россия
Жанр: драма, комедия
Продолжительность: 01:37:43

Режиссер: Дмитрий Месхиев
Продюссер: Ольга Васильева, Светлана Слитюк
Сценарий: Геннадий Островский, Сергей Чихачев

Премьера в мире: 17 января 2002



В ролях: Сергей Гармаш, Михаил Пореченков, Константин Хабенский, Сергей Маковецкий, Андрей Зибров, Ирина Розанова, Евгения Добровольская, Зинаида Шарко, Сергей Головкин, Вадим Смирнов

Описание: Коля из патентного отдела, который женщинам стихи писал на 8 марта, скончался. Поехал в Лыково под Питер на выходные и скончался от инфаркта. Поэтому завод решил Колю выручать. То есть — тело Колино решили вывозить из этого Лыкова за счет предприятия. Добровольцев, правда, не нашлось. Поэтому послали двоих в принудительном порядке: сугубо положительного непьющего Маркеранца и делового Митягина.

Жалко, что Митягин предложил Маркеранцу выпить в вагоне-ресторане: за Колю, за судьбу, за нашу страну. Кончилось все тем, что Маркеранец все деньги, собранные заводом на Колю, подарил какой-то Любе. А в это время из купе пропадает тело Коли и… золото в чемодане, которое везет для мафии четвертый пассажир. Расследовать все это безобразие, поручено деревенскому следователю.

Качество: DVDRip
Формат: AVI
Видео кодек: XviD
Аудио кодек: AC3
Видео: 720x384, (1,85:1), 25,000 кадров/сек, 1546 Кбит/сек, 0.224 бит/пикс
Аудио: 48,0 КГц, АС3, 6 каналов, 448 Кбит/секскриншот   скриншот   скриншот   скриншот  
Общее
Полное имя : D:\загрузки\Механическая сюита.avi
Формат : AVI
Формат/Информация : Audio Video Interleave
Размер файла : 1,37 Гбайт
Продолжительность : 1 ч. 37 м.
Общий поток : 2001 Кбит/сек
Программа кодирования : VirtualDubMod 1.5.4.1 (build 2178/release)
Библиотека кодирования : VirtualDubMod build 2178/release

Видео
Идентификатор : 0
Формат : MPEG-4 Visual
Профиль формата : Advanced Simple@L5
Параметр BVOP формата : 1
Параметр QPel формата : Нет
Параметр GMC формата : Без точки перехода
Параметр матрицы формата : Выборочная
Идентификатор кодека : XVID
Идентификатор кодека/Подсказка : XviD
Продолжительность : 1 ч. 37 м.
Битрейт : 1546 Кбит/сек
Ширина : 720 пикселей
Высота : 384 пикселя
Соотношение сторон : 1,85:1
Частота кадров : 25,000 кадров/сек
Цветовое пространство : YUV
Субдискретизация насыщенности : 4:2:0
Битовая глубина : 8 бит
Тип развёртки : Прогрессивная
Метод сжатия : С потерями
Бит/(Пиксели*Кадры) : 0.224
Размер потока : 1,06 Гбайт (77%)
Библиотека кодирования : XviD 1.2.0.dev47 (UTC 2006-11-01)

Аудио
Идентификатор : 1
Формат : AC-3
Формат/Информация : Audio Coding 3
Расширение режима : CM (complete main)
Параметр Endianness формата : Big
Идентификатор кодека : 2000
Продолжительность : 1 ч. 37 м.
Вид битрейта : Постоянный
Битрейт : 448 Кбит/сек
Каналы : 6 каналов
Расположение каналов : Front: L C R, Side: L R, LFE
Частота : 48,0 КГц
Битовая глубина : 16 бит
Метод сжатия : С потерями
Размер потока : 313 Мбайт (22%)
Выравнивание : Разделение по промежуткам
Продолжительность промежутка : 96 мс. (2,40 видеокадра)
Время предзагрузки промежутка : 96 мс.
Язык : Russian

piratbit.cc



Скачать Механическая сюита через торрент http://pic.kartinco.top/images/7/v3rfd.jpg Скачать фильм Механическая сюита через торрент бесплантно в хорошем качестве Описание: Коля из патентного отдела, который женщинам стихи писал на 8 марта, скончался. Поехал в Лыково под Питер на выходные и скончался ... 9 10 8
Торрент: Зарегистрирован [2014-10-03 16:13] · скачан: 191 раз
Статус: √ проверено
Размер: 1.37 GB
Как cкачать? Как скачать Механическая сюита через торрент | qTorrent


>> Регистрируемся здесь <<






Отзывы и комментарии о схеме читаем и пишем здесь: ---> Отзывы и комментарии о схеме

Новые благодарочки в телеграм довольных пользователей:
скриншот   скриншот   скриншот   скриншот   скриншот
    Дорогой пользователь! Огромная просьба, поблагодарите релизера, оцените раздачу и оставьте свои комментарий, если Вы скачали Механическая сюита через торрент бесплатно! Внесите свою лепту в развитие PiratBit!
    Комментировать посты могут только пользователи прошедшие не сложную регистрацию
    Показать сообщения:    

    Механическая сюита через торрент
    Скачать бесплатно Механическая сюита
    Механическая сюита скачать торрент
    Механическая сюита смотреть онлайн
    Cкачать фильм Механическая сюита бесплатно
    Механическая сюита скачать торрент в хорошем качестве
    Механическая сюита смотреть онлайн бесплатно в хорошем качестве


    Вы не можете начинать темы
    Вы не можете отвечать на сообщения
    Вы не можете редактировать свои сообщения
    Вы не можете удалять свои сообщения
    Вы не можете голосовать в опросах
    Вы не можете прикреплять файлы к сообщениям
    Вы можете скачивать файлы