Лицензия

30

iTunes

мы

iTunes

1

1 сезон

Чернобыль

1 сезон

Ральф против интернета

MVO

Покемон. Детектив Пикачу

8 сезон

Игра престолов

iTunes

1+1

ИГРА 18+

pack

ВАЖНО

!!Акция!!

Alien_RageХит недели

RePack

Resident Evil 21
pack

RePack

Metro:Exodus

!!Акция!!

Alien_Rage

RePack

fifa19

RePack

Assassins Creed: Odyssey

RePack

NEED FOR SPEED™ PAYBACK

3 сезон

9 сезон

Бесстыжие 9 сезон

Все сериалы

все сериалы на PB.wtf

RePack

FAR CRY 5
Ребята, катастрофически не хватает 2730р. для оплаты серверов за МАЙ (всвязи с блокировками трафик упал в 3 раза), 1-2р., выручайте.
  

Осторожно, дети (Станислав Лебедев) [2008 г., детский, комедия, DVDRip] piratbit.cc

Осторожно, дети через торрент piratbit.cc

Размер: 1.45 GB | Добавлен: 4 года 7 мес. назад | Торрент скачан:109 раз
Скачать  

02-11-2014 15:25 Осторожно, дети Скачать торрент  

Осторожно дети
Год выпуска: 2008
Страна: Россия
Жанр: детский, комедия
Продолжительность: 01:13:17
Перевод: Не требуется

Режиссер: Станислав Лебедев
Продюссер: Виталий Сидоренко
Сценарий: Валерий Козлов, Станислав Лебедев, Валерий Попов

Бюджет: $117 965

IMDB 6.90 (21)


В ролях: Сергей Гармаш, Всеволод Николаев, Александр Сигуев, Валерий Шумский, Анастасия Маслова, Екатерина Маслова, Николай Сердцев, Егор Сальников, Валерия Жидкова, Павел Евдокименко

Описание: Два пятиклассника, отличник Григорьев и двоечник Горохов, прогуливая уроки, оказываются в различных забавных ситуациях. Попадая в нелепые истории и преодолевая препятствия, мальчишки незаметно для самих себя становятся хорошими друзьями...

Качество: DVDRip
Формат: AVI
Видео кодек: XviD
Аудио кодек: AC3
Видео: 704x400 (1.76:1), 25 fps, XviD build 50 ~2379 kbps avg, 0.34 bit/pixel
Аудио#1: 48 kHz, AC3 Dolby Digital, 3/2 (L,C,R,l,r) + LFE ch, ~448.00 kbps avg

Общее
Полное имя : F:\Закачки\Ostorozhno.Deti.2008.DVDRip.avi
Формат : AVI
Формат/Информация : Audio Video Interleave
Размер файла : 1,45 Гбайт
Продолжительность : 1 ч. 13 м.
Общий поток : 2837 Кбит/сек
Программа кодирования : VirtualDubMod 1.5.10.3 | www.virtualdub-fr.org || (build 2550/release)
Библиотека кодирования : VirtualDubMod build 2550/release

Видео
Идентификатор : 0
Формат : MPEG-4 Visual
Профиль формата : Advanced Simple@L5
Параметр BVOP формата : 2
Параметр QPel формата : Нет
Параметр GMC формата : Без точки перехода
Параметр матрицы формата : Default (H.263)
Идентификатор кодека : XVID
Идентификатор кодека/Подсказка : XviD
Продолжительность : 1 ч. 13 м.
Битрейт : 2379 Кбит/сек
Ширина : 704 пикселя
Высота : 400 пикселей
Соотношение сторон : 16:9
Частота кадров : 25,000 кадров/сек
Цветовое пространство : YUV
Субдискретизация насыщенности : 4:2:0
Битовая глубина : 8 бит
Тип развёртки : Прогрессивная
Метод сжатия : С потерями
Бит/(Пиксели*Кадры) : 0.338
Размер потока : 1,22 Гбайт (84%)
Библиотека кодирования : XviD 1.2.1 (UTC 2008-12-04)

Аудио
Идентификатор : 1
Формат : AC-3
Формат/Информация : Audio Coding 3
Расширение режима : CM (complete main)
Параметр Endianness формата : Big
Идентификатор кодека : 2000
Продолжительность : 1 ч. 13 м.
Вид битрейта : Постоянный
Битрейт : 448 Кбит/сек
Каналы : 6 каналов
Расположение каналов : Front: L C R, Side: L R, LFE
Частота : 48,0 КГц
Битовая глубина : 16 бит
Метод сжатия : С потерями
Размер потока : 235 Мбайт (16%)
Выравнивание : Разделение по промежуткам
Продолжительность промежутка : 40 мс. (1,00 видеокадр)
Время предзагрузки промежутка : 500 мс.


Осторожно, дети скачать торрент


piratbit.cc



Скачать Осторожно, дети через торрент http://pic.kartinco.top/img/2014-11/02/gerftfpo7xw1a0muldnrf8cfr.jpg Скачать фильм Осторожно, дети через торрент бесплантно в хорошем качестве Описание: Два пятиклассника, отличник Григорьев и двоечник Горохов, прогуливая уроки, оказываются в различных забавных ситуациях. Попадая в ... 9 10 5
Торрент: Зарегистрирован [2014-11-02 15:25] · скачан: 109 раз
Статус: √ проверено
Размер: 1.45 GB
Как cкачать? Как скачать Осторожно, дети через торрент | qTorrent

% Раздел Тема Автор DL S | L
Наши фильмы, до 2010 [ 1.37 GB ] Осторожно! Дети! [2008 детский DVDRip] DEVI Скачать
1 | 0


>> Регистрируемся здесь <<






Отзывы и комментарии о схеме читаем и пишем здесь: ---> Отзывы и комментарии о схеме

Новые благодарочки в телеграм довольных пользователей:
скриншот   скриншот   скриншот   скриншот   скриншот
    Дорогой пользователь! Огромная просьба, поблагодарите релизера, оцените раздачу и оставьте свои комментарий, если Вы скачали Осторожно, дети через торрент бесплатно! Внесите свою лепту в развитие PiratBit!
    Комментировать посты могут только пользователи прошедшие не сложную регистрацию
    Показать сообщения:    

    Осторожно, дети через торрент
    Скачать бесплатно Осторожно, дети
    Осторожно, дети скачать торрент
    Осторожно, дети смотреть онлайн
    Cкачать фильм Осторожно, дети бесплатно
    Осторожно, дети скачать торрент в хорошем качестве
    Осторожно, дети смотреть онлайн бесплатно в хорошем качестве


    Вы не можете начинать темы
    Вы не можете отвечать на сообщения
    Вы не можете редактировать свои сообщения
    Вы не можете удалять свои сообщения
    Вы не можете голосовать в опросах
    Вы не можете прикреплять файлы к сообщениям
    Вы можете скачивать файлы