Лицензия

30

iTunes

Как приручить дракона 3

11 сезон

1

1 сезон

гринч

iTunes

Стекло

iTunes

Клаустрофобы

8 сезон

Игра престолов

iTunes

Ральф против интернета Хит недели

ИГРА 18+

pack

ВАЖНО

!!Акция!!

Alien_RageХит недели

RePack

Resident Evil 21
pack

RePack

Metro:Exodus

!!Акция!!

Alien_Rage

RePack

fifa19

RePack

Assassins Creed: Odyssey

RePack

NEED FOR SPEED™ PAYBACK

3 сезон

9 сезон

Бесстыжие 9 сезон

Все сериалы

все сериалы на PB.wtf

RePack

FAR CRY 5
Ребята, критически не успеваем дособрать 3200р. для оплаты серверов за Март (всвязи с блокировками трафик упал в 3 раза), 1-2р., выручайте.
  

Бой местного значения (Алексей Козлов) [2008 г., ВОВ, драма, DVDRip] piratbit.cc

Бой местного значения через торрент piratbit.cc

Размер: 1.37 GB | Добавлен: 4 года 5 мес. назад | Торрент скачан:330 раз
Скачать  

03-11-2014 19:31 Бой местного значения Скачать торрент  

Бой местного значенияГод выпуска: 2008
Страна: Россия Феникс-фильм
Жанр: ВОВ, драма
Продолжительность: 01:36:36

Режиссер: Алексей Козлов
Продюссер: Ольга Манеева
Сценарий: Алексей Козлов, Валентин Спиридонов

Премьера в мире: 8 мая 2008 В ролях: Алексей Бардуков, Николай Добрынин, Алексей Зубков, Сергей Шеховцов, Александр Тырымов, Кристина Бабушкина, Александр Александров (II), Елена Радевич, Дмитрий Сутырин, Ирина Умикова, Йохан Михаэль Ботт, Владислав Бендерский, Ольга Завьялова

Описание: Конец 1943 года. Подразделение советских солдат во главе с молодым, ещё не нюхавшим войны, младшим лейтенантом останавливается в глухой деревеньке, стоящей в стороне от главных дорог. Её жители за всё время войны ни разу не видели немцев, поэтому внезапное появление здесь отборных диверсантов СС стало для всех полной неожиданностью...

Качество: DVDRip
Формат: AVI
Видео кодек: XviD
Аудио кодек: AC3
Видео: Xvid 704x352, 25fps, 1594kbps
Аудио: Dolby AC3, 48000Hz, 6ch, 448kbps
Релиз от: GoldFlower






General
Complete name : E:\01 01 sicret\Boj.mestnogo.znacheniya.2007.XviD.DVDRip.Kinozal.TV.avi
Format : AVI
Format/Info : Audio Video Interleave
File size : 1.37 GiB
Duration : 1h 35mn
Overall bit rate : 2 052 Kbps
Writing application : VirtualDubMod 1.5.4.1 (build 2178/release)
Writing library : VirtualDubMod build 2178/release

Video
ID : 0
Format : MPEG-4 Visual
Format profile : Advanced Simple@L5
Format settings, BVOP : 1
Format settings, QPel : No
Format settings, GMC : No warppoints
Format settings, Matrix : Custom
Codec ID : XVID
Codec ID/Hint : XviD
Duration : 1h 35mn
Bit rate : 1 595 Kbps
Width : 704 pixels
Height : 352 pixels
Display aspect ratio : 2.000
Frame rate : 25.000 fps
Color space : YUV
Chroma subsampling : 4:2:0
Bit depth : 8 bits
Scan type : Progressive
Compression mode : Lossy
Bits/(Pixel*Frame) : 0.257
Stream size : 1.06 GiB (78%)
Writing library : XviD 1.2.0.dev47 (UTC 2006-11-01)

Audio
ID : 1
Format : AC-3
Format/Info : Audio Coding 3
Mode extension : CM (complete main)
Format settings, Endianness : Big
Codec ID : 2000
Duration : 1h 35mn
Bit rate mode : Constant
Bit rate : 448 Kbps
Channel(s) : 6 channels
Channel positions : Front: L C R, Side: L R, LFE
Sampling rate : 48.0 KHz
Bit depth : 16 bits
Compression mode : Lossy
Delay relative to video : 12ms
Stream size : 306 MiB (22%)
Alignment : Split accross interleaves
Interleave, duration : 40 ms (1.00 video frame)
Interleave, preload duration : 500 ms

piratbit.cc



Скачать Бой местного значения через торрент http://pic.kartinco.top/img/2014-11/03/5hlvn96fa0lqt7xqb3vsgo7fa.jpg Скачать фильм Бой местного значения через торрент бесплантно в хорошем качестве Описание: Конец 1943 года. Подразделение советских солдат во главе с молодым, ещё не нюхавшим войны, младшим лейтенантом останавливается в ... 9.4 10 9
Торрент: Зарегистрирован [2014-11-03 19:31] · скачан: 330 раз
Статус: √ проверено
Размер: 1.37 GB
Как cкачать? Как скачать Бой местного значения через торрент | qTorrent


>> Регистрируемся здесь <<






Отзывы и комментарии о схеме читаем и пишем здесь: ---> Отзывы и комментарии о схеме

Новые благодарочки в телеграм довольных пользователей:
скриншот   скриншот   скриншот   скриншот   скриншот
    Дорогой пользователь! Огромная просьба, поблагодарите релизера, оцените раздачу и оставьте свои комментарий, если Вы скачали Бой местного значения через торрент бесплатно! Внесите свою лепту в развитие PiratBit!
    Комментировать посты могут только пользователи прошедшие не сложную регистрацию
    Показать сообщения:    

    Бой местного значения через торрент
    Скачать бесплатно Бой местного значения
    Бой местного значения скачать торрент
    Бой местного значения смотреть онлайн
    Cкачать фильм Бой местного значения бесплатно
    Бой местного значения скачать торрент в хорошем качестве
    Бой местного значения смотреть онлайн бесплатно в хорошем качестве


    Вы не можете начинать темы
    Вы не можете отвечать на сообщения
    Вы не можете редактировать свои сообщения
    Вы не можете удалять свои сообщения
    Вы не можете голосовать в опросах
    Вы не можете прикреплять файлы к сообщениям
    Вы можете скачивать файлы