Лицензия

30

iTunes

мы

iTunes

1

1 сезон

Чернобыль

1 сезон

Ральф против интернета

MVO

Покемон. Детектив Пикачу

8 сезон

Игра престолов

iTunes

1+1

ИГРА 18+

pack

ВАЖНО

!!Акция!!

Alien_RageХит недели

RePack

Resident Evil 21
pack

RePack

Metro:Exodus

!!Акция!!

Alien_Rage

RePack

fifa19

RePack

Assassins Creed: Odyssey

RePack

NEED FOR SPEED™ PAYBACK

3 сезон

9 сезон

Бесстыжие 9 сезон

Все сериалы

все сериалы на PB.wtf

RePack

FAR CRY 5
Ребята, катастрофически не хватает 2730р. для оплаты серверов за МАЙ (всвязи с блокировками трафик упал в 3 раза), 1-2р., выручайте.
  

Упасть вверх (Сергей Гинзбург, Александр Стриженов) [2002 г., Дрaмa,mелодрама, DVDRip] piratbit.cc

Упасть вверх через торрент piratbit.cc

Размер: 1.37 GB | Добавлен: 4 года 3 мес. назад | Торрент скачан:158 раз
Скачать  

02-03-2015 09:34 Упасть вверх Скачать торрент  

Упасть вверх
Год выпуска: 2002
Страна: Россия
Жанр: Дрaмa,mелодрама
Продолжительность: 01:27:21

Режиссер: Сергей Гинзбург, Александр Стриженов



В ролях: Евгения Крюкова, Александр Феклистов, Евгений Сидихин, Марина Яковлева, Игорь Верник, Лариса Кузнецова

Описание: Казалось бы, фильмов с рефлексирующими героями хватает, однако <Упасть вверх> - первый фильм о российской буржуазии, первая честная попытка разобраться в феноменологии нового класса, к тому же снятый в подлинных, <буржуйских> апартаментах, дорогих ресторанах и клубах, а не в картонных декорациях. Почему у, казалось бы, успешных, состоявшихся людей так часто замечаешь пустой, потухший взгляд, - задается вопросом автор сценария, писательница Наталия Вико. Всем знакомая тема одиночества современной обеспеченной женщины открывается по-новому.

Качество: DVDRip
Формат: AVI
Видео кодек: DivX
Аудио кодек: AC3
Видео: 720x448 (1.607), 25.000 fps, 2 043 Kbps (0.253 bit/pixel)
Аудио#1: 48.0 KHz, 2 ch, 192 Kbps, CBR (Russian)
Релиз от:
Общее
Полное имя : I:\Упасть вверх\Upast.vverx.2002.DVDRip.Kinoradiomagia.avi
Формат : AVI
Формат/Информация : Audio Video Interleave
Размер файла : 1,37 Гбайт
Продолжительность : 1 ч. 27 м.
Общий поток : 2242 Кбит/сек
Программа кодирования : VirtualDubMod 1.5.4.1 (build 2178/release)
Библиотека кодирования : VirtualDubMod build 2178/release

Видео
Идентификатор : 0
Формат : MPEG-4 Visual
Параметр BVOP формата : 1
Параметр QPel формата : Нет
Параметр GMC формата : Без точки перехода
Параметр матрицы формата : Default (H.263)
Режим смешивания : Сжатый битовый поток
Идентификатор кодека : DX50
Идентификатор кодека/Подсказка : DivX 5
Продолжительность : 1 ч. 27 м.
Битрейт : 2043 Кбит/сек
Ширина : 720 пикселей
Высота : 448 пикселей
Соотношение сторон : 16:10
Частота кадров : 25,000 кадров/сек
Цветовое пространство : YUV
Субдискретизация насыщенности : 4:2:0
Битовая глубина : 8 бит
Тип развёртки : Прогрессивная
Метод сжатия : С потерями
Бит/(Пиксели*Кадры) : 0.253
Размер потока : 1,25 Гбайт (91%)
Библиотека кодирования : DivX 5.2.1 (WaffleDay) (UTC 2004-09-08)

Аудио
Идентификатор : 1
Формат : AC-3
Формат/Информация : Audio Coding 3
Расширение режима : CM (complete main)
Параметр Endianness формата : Big
Идентификатор кодека : 2000
Продолжительность : 1 ч. 27 м.
Вид битрейта : Постоянный
Битрейт : 192 Кбит/сек
Каналы : 2 канала
Расположение каналов : Front: L R
Частота : 48,0 КГц
Битовая глубина : 16 бит
Метод сжатия : С потерями
Размер потока : 120 Мбайт (9%)
Выравнивание : Разделение по промежуткам
Продолжительность промежутка : 96 мс. (2,40 видеокадра)
Время предзагрузки промежутка : 96 мс.
Язык : Russian

piratbit.cc



Скачать Упасть вверх через торрент http://pic1.kartinco.top/images/10/66hpa.jpg Скачать фильм Упасть вверх через торрент бесплантно в хорошем качестве Описание: Казалось бы, фильмов с рефлексирующими героями хватает, однако - первый фильм о российской буржуазии, первая честная попытка ... 10 10 4
Торрент: Зарегистрирован [2015-03-02 09:34] · скачан: 158 раз
Статус: √ проверено
Размер: 1.37 GB
Как cкачать? Как скачать Упасть вверх через торрент | qTorrent


>> Регистрируемся здесь <<






Отзывы и комментарии о схеме читаем и пишем здесь: ---> Отзывы и комментарии о схеме

Новые благодарочки в телеграм довольных пользователей:
скриншот   скриншот   скриншот   скриншот   скриншот
    Дорогой пользователь! Огромная просьба, поблагодарите релизера, оцените раздачу и оставьте свои комментарий, если Вы скачали Упасть вверх через торрент бесплатно! Внесите свою лепту в развитие PiratBit!
    Комментировать посты могут только пользователи прошедшие не сложную регистрацию
    Показать сообщения:    

    Упасть вверх через торрент
    Скачать бесплатно Упасть вверх
    Упасть вверх скачать торрент
    Упасть вверх смотреть онлайн
    Cкачать фильм Упасть вверх бесплатно
    Упасть вверх скачать торрент в хорошем качестве
    Упасть вверх смотреть онлайн бесплатно в хорошем качестве


    Вы не можете начинать темы
    Вы не можете отвечать на сообщения
    Вы не можете редактировать свои сообщения
    Вы не можете удалять свои сообщения
    Вы не можете голосовать в опросах
    Вы не можете прикреплять файлы к сообщениям
    Вы можете скачивать файлы