Лицензия

30

iTunes

мы

iTunes

1

1 сезон

Чернобыль

1 сезон

Ральф против интернета

MVO

Покемон. Детектив Пикачу

8 сезон

Игра престолов

iTunes

1+1

ИГРА 18+

pack

ВАЖНО

!!Акция!!

Alien_RageХит недели

RePack

Resident Evil 21
pack

RePack

Metro:Exodus

!!Акция!!

Alien_Rage

RePack

fifa19

RePack

Assassins Creed: Odyssey

RePack

NEED FOR SPEED™ PAYBACK

3 сезон

9 сезон

Бесстыжие 9 сезон

Все сериалы

все сериалы на PB.wtf

RePack

FAR CRY 5
Ребята, катастрофически не хватает 2730р. для оплаты серверов за МАЙ (всвязи с блокировками трафик упал в 3 раза), 1-2р., выручайте.
  

12 / Двенадцать (Никита Михалков) [2007, Триллер, драма, криминал, детектив, HDRip] piratbit.cc

12 через торрент piratbit.cc

Размер: 1.32 GB | Добавлен: 4 года 2 мес. назад | Торрент скачан:124 раза
Скачать  

29-03-2015 19:14 12 Скачать торрент  

12 (Двенадцать)Для всех и про каждого...Год выпуска: 2007
Страна: Россия
Жанр: Триллер, драма, криминал, детектив

Длительность: 02:35:05
Перевод: Не требуется
Субтитры: Нет

Режиссёр: Никита Михалков
В ролях: Сергей Маковецкий, Никита Михалков, Сергей Гармаш, Валентин Гафт, Алексей Петренко, Юрий Стоянов, Сергей Газаров, Михаил Ефремов, Алексей Горбунов, Сергей Арцибашев

Описание:
История о 12-ти присяжных, обсуждающих, виновен ли 18-летний юноша, обвиняемый в убийстве своего отчима — офицера Российской армии, воевавшего в Чечне



Качество: HDRip
Формат: AVI
Видео кодек: XviD
Аудио кодек: MP3
Видео: 1079 kbps, 640x272, 25 fps
Аудио: 128 kbps, 2 ch, 44,1 khz

Рип от: Egorijj.Alien
General
Complete name : D:\Видео\Рип\12.avi
Format : AVI
Format/Info : Audio Video Interleave
File size : 1.32 GiB
Duration : 2h 35mn
Overall bit rate : 1 219 Kbps

Video
ID : 0
Format : MPEG-4 Visual
Format profile : Advanced Simple@L4
Format settings, BVOP : No
Format settings, QPel : No
Format settings, GMC : No warppoints
Format settings, Matrix : Default (H.263)
Codec ID : XVID
Codec ID/Hint : XviD
Duration : 2h 35mn
Bit rate : 1 079 Kbps
Width : 640 pixels
Height : 272 pixels
Display aspect ratio : 2.35:1
Frame rate : 25.000 fps
Color space : YUV
Chroma subsampling : 4:2:0
Bit depth : 8 bits
Scan type : Progressive
Compression mode : Lossy
Bits/(Pixel*Frame) : 0.248
Stream size : 1.17 GiB (88%)

Audio
ID : 1
Format : MPEG Audio
Format version : Version 1
Format profile : Layer 3
Codec ID : 55
Codec ID/Hint : MP3
Duration : 2h 35mn
Bit rate mode : Constant
Bit rate : 128 Kbps
Channel(s) : 2 channels
Sampling rate : 44.1 KHz
Compression mode : Lossy
Stream size : 142 MiB (10%)
Alignment : Split accross interleaves
Interleave, duration : 26 ms (0.65 video frame)
piratbit.cc



Скачать 12 через торрент http://i65.fastpic.ru/big/2015/0328/ad/7cd26048bc0aea4cd03a9e614b032fad.png Скачать фильм 12 через торрент бесплантно в хорошем качестве Описание: История о 12-ти присяжных, обсуждающих, виновен ли 18-летний юноша, обвиняемый в убийстве своего отчима — офицера Российской ... 8.6 10 14
Info! Золотая раздача, скачанное не засчитывается.
Торрент: Зарегистрирован [2015-03-29 19:14] · скачан: 124 раз
Статус: √ проверено
Размер: 1.32 GB
Как cкачать? Как скачать 12 через торрент | qTorrent

% Раздел Тема Автор DL S | L
Фильмы [HD 720p, 1080p] (Хороший звук DUB, MVO) [ 5.75 GB ] Кавалерия / 12 Strong [2018 военный история BDRip 1080p HEVC ()] Мичман37 Скачать
1 | 0
T Релизы по Парсеру [Игры, Сериалы и Фильмы и другое...] [ 1.46 GB ] 12 друзей Оушена / Двенадцать друзей Оушена / Ocean's Twelve [2004 BDRip] Dub sanekbest1 Скачать
2 | 0
Фильмы [HD 720p, 1080p] (Хороший звук DUB, MVO) [ 26.71 GB ] 12 обезьян / Двенадцать обезьян / Twelve Monkeys / 12 Monkeys [1995 BDRip 1080p] Dub + MVO + DVO + 4x AVO + Ukr + Original Eng Ворон Скачать
1 | 0
Фильмы 2012 [ 1.37 GB ] Двенадцать бедствий на Рождество / The 12 Disasters of Christmas [2012 HDRip ] 4eJLoJ3ek Скачать
1 | 0
Фильмы 2012 [ 1.37 GB ] Двенадцать бедствий на Рождество / The 12 Disasters of Christmas [2012 HDTVRip] -=Cherry=- Скачать
1 | 0
Фильмы 2006-2008 [ 2.05 GB ] 12 / 12 [2007 психологический DVDRip] Красик Скачать
1 | 0


>> Регистрируемся здесь <<






Отзывы и комментарии о схеме читаем и пишем здесь: ---> Отзывы и комментарии о схеме

Новые благодарочки в телеграм довольных пользователей:
скриншот   скриншот   скриншот   скриншот   скриншот

29-03-2015 19:26 12 Скачать торрент  

Egorijj.Alien писал(а):

Рип от: Egorijj.Alien

Чем рип делали, какой программой ?piratbit.cc



29-03-2015 19:32 12 Скачать торрент  

Ворон: Movavi Видео Конвертер 10piratbit.cc



30-03-2015 04:48 12 Скачать торрент  

Слизано с фильма 12 разгневанных мужчин. Лучше уж тот старый фильм смотреть чем этот)piratbit.cc



30-03-2015 06:11 12 Скачать торрент  

лично мое мнение, так это лучший фильм от Бесогона:)piratbit.cc



01-04-2015 17:28 12 Скачать торрент  

немного натянуто по сюжету(я про то что 2 человека как мин. все уже знали и т.д., ну и скупая слеза в конце)а в целом оказался самым любимым фильмом российского синема.
Стоянов переиграл, а вот Горбунов- это однозначно плюс. да и вообще не зря награды пособирал- качественная работа.
Отличный фильм, но уже есть в коллекции.piratbit.cc



03-04-2015 19:19 12 Скачать торрент  

piratbit.cc



    Дорогой пользователь! Огромная просьба, поблагодарите релизера, оцените раздачу и оставьте свои комментарий, если Вы скачали 12 через торрент бесплатно! Внесите свою лепту в развитие PiratBit!
    Комментировать посты могут только пользователи прошедшие не сложную регистрацию
    Показать сообщения:    

    12 через торрент
    Скачать бесплатно 12
    12 скачать торрент
    12 смотреть онлайн
    Cкачать фильм 12 бесплатно
    12 скачать торрент в хорошем качестве
    12 смотреть онлайн бесплатно в хорошем качестве


    Вы не можете начинать темы
    Вы не можете отвечать на сообщения
    Вы не можете редактировать свои сообщения
    Вы не можете удалять свои сообщения
    Вы не можете голосовать в опросах
    Вы не можете прикреплять файлы к сообщениям
    Вы можете скачивать файлы