Лицензия

30

iTunes

мы

iTunes

1

1 сезон

Чернобыль

iTunes

1+1

iTunes

Закатать в асфальт

8 сезон

Игра престолов

1 сезон

Ральф против интернета

ИГРА 18+

pack

ВАЖНО

!!Акция!!

Alien_RageХит недели

RePack

Resident Evil 21
pack

RePack

Metro:Exodus

!!Акция!!

Alien_Rage

RePack

fifa19

RePack

Assassins Creed: Odyssey

RePack

NEED FOR SPEED™ PAYBACK

3 сезон

9 сезон

Бесстыжие 9 сезон

Все сериалы

все сериалы на PB.wtf

RePack

FAR CRY 5
Ребята, катастрофически не хватает 2730р. для оплаты серверов за АПРЕЛЬ (всвязи с блокировками трафик упал в 3 раза), 1-2р., выручайте.
  

Дети понедельника (Алла Сурикова) [1997 г., комедия, DVDRip ] piratbit.cc

Дети понедельника через торрент piratbit.cc

Размер: 1.37 GB | Добавлен: 4 года 1 мес. назад | Торрент скачан:95 раз
Скачать  

31-03-2015 07:02 Дети понедельника Скачать торрент  

Дети понедельника

Год выпуска: 1997
Страна: Россия
Жанр: комедия
Продолжительность: 01:28:31
Режиссер: Алла Сурикова
В ролях: Игорь Скляр (Дима Медякин), Ирина Розанова (Лида Овдеева), Татьяна Догилева (Света), Виктор Павлов (Джонни Бак), Сергей Никоненко (Олег Яценко), Татьяна Кравченко (Маргарита), Алексей Жарков (Вася Нечуенко), Геннадий Назаров (мастер на фабрике), Армен Джигарханян (банкир), Наталья Крачковская (продавщица мороженого), Алексей Елистратов, Анатолий Калмыков (рэкитер)
Описание:
Легко ли быть живым трупом? Как потратить полмиллиона долларов? Можно ли влюбиться дважды в одну и ту же невесту?..

Дима Медякин не расплатился вовремя с кредиторами, которые в отместку решили его убить. Они взорвали его автомобиль, и, только благодаря счастливой случайности, Дима остался жив. Его жена, уставшая от совместной жизни, вывезла мужа в деревню, где бросила его, еще не протрезвевшего и не пришедшего в себя после выстрела газового пистолета. Приняла героя родная сестра жены Лида, которая когда-то была его невестой...

Дмитрий по-новому увидел и оценил Лиду, проникся к ней симпатией и решил остаться, чтобы начать честную жизнь. Но в чемодане, брошенном бывшей супругой, он обнаружил не свои вещи, а полмиллиона долларов...
Рейтинг:

Качество: DVDRip
Формат: AVI
Видео кодек: DivX
Аудио кодек:AC3
Видео: DivX 5, 688x496 (1.387), 1752 kbps, 25 fps, 0,205 bpp
Аудио: AC3 / 5.1 / 48 kHz / 448 kbps / 16 bit

Код:

General
Complete name                            : D:\Deti.ponedelnika.1997.DivX.DVDRip.avi
Format                                   : AVI
Format/Info                              : Audio Video Interleave
File size                                : 1.37 GiB
Duration                                 : 1h 28mn
Overall bit rate                         : 2 211 Kbps
Writing application                      : VirtualDubModRus 1.5.10.2 (build 2540/release)
Writing library                          : VirtualDubMod build 2540/release

Video
ID                                       : 0
Format                                   : MPEG-4 Visual
Format settings, BVOP                    : 1
Format settings, QPel                    : No
Format settings, GMC                     : No warppoints
Format settings, Matrix                  : Default (H.263)
Muxing mode                              : Packed bitstream
Codec ID                                 : DX50
Codec ID/Hint                            : DivX 5
Duration                                 : 1h 28mn
Bit rate                                 : 1 753 Kbps
Width                                    : 688 pixels
Height                                   : 496 pixels
Display aspect ratio                     : 1.387
Frame rate                               : 25.000 fps
Color space                              : YUV
Chroma subsampling                       : 4:2:0
Bit depth                                : 8 bits
Scan type                                : Progressive
Compression mode                         : Lossy
Bits/(Pixel*Frame)                       : 0.205
Stream size                              : 1.08 GiB (79%)
Writing library                          : DivX 6.8.0 (UTC 2007-12-04)

Audio
ID                                       : 1
Format                                   : AC-3
Format/Info                              : Audio Coding 3
Mode extension                           : CM (complete main)
Codec ID                                 : 2000
Duration                                 : 1h 28mn
Bit rate mode                            : Constant
Bit rate                                 : 448 Kbps
Channel(s)                               : 6 channels
Channel positions                        : Front: L C R, Side: L R, LFE
Sampling rate                            : 48.0 KHz
Bit depth                                : 16 bits
Compression mode                         : Lossy
Stream size                              : 284 MiB (20%)
Alignment                                : Split accross interleaves
Interleave, duration                     : 40 ms (1.00 video frame)
Interleave, preload duration             : 500 ms

piratbit.cc



Скачать Дети понедельника через торрент http://i2.imageban.ru/out/2015/03/31/5bfe7814cd2f76a49c87d3483d601cb1.jpg Скачать фильм Дети понедельника через торрент бесплантно в хорошем качестве Описание: Легко ли быть живым трупом? Как потратить полмиллиона долларов? Можно ли влюбиться дважды в одну и ту же невесту?.. Дима Медякин ... 10 10 6
Info! Золотая раздача, скачанное не засчитывается.
Торрент: Зарегистрирован [2015-03-31 07:02] · скачан: 95 раз
Статус: √ проверено
Размер: 1.37 GB
Как cкачать? Как скачать Дети понедельника через торрент | qTorrent


>> Регистрируемся здесь <<






Отзывы и комментарии о схеме читаем и пишем здесь: ---> Отзывы и комментарии о схеме

Новые благодарочки в телеграм довольных пользователей:
скриншот   скриншот   скриншот   скриншот   скриншот
    Дорогой пользователь! Огромная просьба, поблагодарите релизера, оцените раздачу и оставьте свои комментарий, если Вы скачали Дети понедельника через торрент бесплатно! Внесите свою лепту в развитие PiratBit!
    Комментировать посты могут только пользователи прошедшие не сложную регистрацию
    Показать сообщения:    

    Дети понедельника через торрент
    Скачать бесплатно Дети понедельника
    Дети понедельника скачать торрент
    Дети понедельника смотреть онлайн
    Cкачать фильм Дети понедельника бесплатно
    Дети понедельника скачать торрент в хорошем качестве
    Дети понедельника смотреть онлайн бесплатно в хорошем качестве


    Вы не можете начинать темы
    Вы не можете отвечать на сообщения
    Вы не можете редактировать свои сообщения
    Вы не можете удалять свои сообщения
    Вы не можете голосовать в опросах
    Вы не можете прикреплять файлы к сообщениям
    Вы можете скачивать файлы