Лицензия

30

MVO

Как приручить дракона 3

11 сезон

1

1 сезон

гринч

iTunes

Стекло

iTunes

Клаустрофобы

8 сезон

Игра престолов

iTunes

Ральф против интернета Хит недели

ИГРА 18+

pack

ВАЖНО

!!Акция!!

Alien_RageХит недели

RePack

Resident Evil 21
pack

RePack

Metro:Exodus

!!Акция!!

Alien_Rage

RePack

fifa19

RePack

Assassins Creed: Odyssey

RePack

NEED FOR SPEED™ PAYBACK

3 сезон

9 сезон

Бесстыжие 9 сезон

Все сериалы

все сериалы на PB.wtf

RePack

FAR CRY 5
Ребята, критически не успеваем дособрать 3200р. для оплаты серверов за Март (всвязи с блокировками трафик упал в 3 раза), 1-2р., выручайте.
  

Остров (Павел Лунгин) [2006 г., драма, HDRip] piratbit.cc

Остров через торрент piratbit.cc

Качают: 1 [ 0 KB/s ]
Размер: 1.47 GB | Добавлен: 4 года назад | Торрент скачан:205 раз
Скачать  

14-04-2015 15:51 Остров Скачать торрент  

ОстровГод выпуска: 2006
Страна: Россия
Жанр: Драма

Режиссёр: Павел Лунгин
В ролях: Петр Мамонов, Виктор Сухоруков, Дмитрий Дюжев, Юрий Кузнецов, Виктория Исакова, Нина Усатова, Яна Есипович, Ольга Демидова, Тимофей Трибунцев, Алексей Зеленский

Продолжительность: 01:54:26
Перевод: Не требуется
Субтитры: Нет

Описание: Вторая мировая война. Баржу, на которой Анатолий и его старший товарищ Тихон перевозят уголь,
захватывает немецкий сторожевой корабль. Вымаливая пощаду у немцев, Анатолий совершает предательство - расстреливает Тихона.
Немцы оставляют труса на заминированной барже, но благодаря помощи монахов, проживающих в монастыре на острове, ему удается выжить.
Проходят годы. Старца Анатолия почитают за праведную жизнь и поистине чудесную помощь, которую он оказывает приехавшим сюда людям.
Однако страшный грех убийства, совершенный им во время войны, не дает ему покоя. Чувствуя приближение своей кончины, Анатолий готовится к смерти и пока не знает,
что скоро будет прощен...



Рип от: Egorijj.Alien

Качество: HDRip
Формат: AVI
Видео кодек: XVID
Аудио кодек: AC-3
Видео: 1575 kbps, 720x304, 23.976 fps,
Аудио: 256 kbps, 2 ch, 48.0 khz
Complete name : D:\Видео\Рип\Ostrov.2006.avi
Format : AVI
Format/Info : Audio Video Interleave
File size : 1.47 GiB
Duration : 1h 54mn
Overall bit rate : 1 840 Kbps
Writing application : VirtualDubMod 1.5.10.3 | www.virtualdub-fr.org || (build 2550/release)
Writing library : VirtualDubMod build 2550/release

Video
ID : 0
Format : MPEG-4 Visual
Format profile : Advanced Simple@L5
Format settings, BVOP : 2
Format settings, QPel : No
Format settings, GMC : No warppoints
Format settings, Matrix : Default (H.263)
Codec ID : XVID
Codec ID/Hint : XviD
Duration : 1h 54mn
Bit rate : 1 575 Kbps
Width : 720 pixels
Height : 304 pixels
Display aspect ratio : 2.35:1
Frame rate : 23.976 fps
Color space : YUV
Chroma subsampling : 4:2:0
Bit depth : 8 bits
Scan type : Progressive
Compression mode : Lossy
Bits/(Pixel*Frame) : 0.300
Stream size : 1.26 GiB (86%)
Writing library : XviD 1.2.1 (UTC 2008-12-04)

Audio
ID : 1
Format : AC-3
Format/Info : Audio Coding 3
Mode extension : CM (complete main)
Format settings, Endianness : Big
Codec ID : 2000
Duration : 1h 54mn
Bit rate mode : Constant
Bit rate : 256 Kbps
Channel(s) : 2 channels
Channel positions : Front: L R
Sampling rate : 48.0 KHz
Bit depth : 16 bits
Compression mode : Lossy
Stream size : 210 MiB (14%)
Alignment : Split accross interleaves
Interleave, duration : 42 ms (1.00 video frame)
Interleave, preload duration : 500 ms
piratbit.cc



Скачать Остров через торрент http://i47.fastpic.ru/big/2013/0415/fc/5b346bb5523decf6c7b84edeabf45cfc.jpg Скачать фильм Остров через торрент бесплантно в хорошем качестве Описание: Вторая мировая война. Баржу, на которой Анатолий и его старший товарищ Тихон перевозят уголь,захватывает немецкий сторожевой ... 9.5 10 18
Info! Золотая раздача, скачанное не засчитывается.
Торрент: Зарегистрирован [2015-04-14 15:51] · скачан: 205 раз
Статус: √ проверено
Размер: 1.47 GB
Как cкачать? Как скачать Остров через торрент | qTorrent

% Раздел Тема Автор DL S | L
Наши фильмы, до 2010 [ 1.37 GB ] Обитаемый остров: Схватка [2009 DVDRip] DEVI Скачать
1 | 0
Антологии [ 3.17 GB ] Антология "Возвращение на Таинственный Остров" [Repack] от R.G. Recoding Shmel Скачать
1 | 0
Порно фильмы HD [ 27.78 GB ] Лихорадка на острове #4 / Island Fever #4 [All Sex Vignettes Straight Студия: Digital Playground 2006 HD30] aspace Скачать
1 | 1
Фильмы (Blu-ray, BD-Remux, HDDVD) [ 21.05 GB ] Остров сокровищ / Treasure Island [2012 Blu-Ray Remux "Вольга" R5] VintMosina Скачать
1 | 0
Видео для КПК и Смартфонов [ 425 MB ] Остров сокровищ [1986 - 1988гг мультфильм DVDRip] + Музыка из мультфильма "Остров сокровищ" Страна Скачать
1 | 1
Наши фильмы (HD, WEB-DL 720p, 1080p) [ 7.95 GB ] Остров [2006 BDRip 1080p] Stargate_Universe Скачать
1 | 0
Фильмы 2006-2008 [ 1.45 GB ] Остров Ним / Nim's Island [2008 BDRip DUB ] Drakosha Скачать
1 | 0
Раскрываю секрет как замутить 6000р. без напряга и вложений

Чтобы получить бонус нужно перейти по --> ссылке и зарегистрироваться
Получаем бесплатный бонус 3000р от казино, ставим все на красное
С вероятностью 50% вы выигрываете
Выводим деньги, идем за айфоном!!!
Если не получилось регаемся еще раз и пробуем еще раз, Автоматы настроены так что каждый второй выигрывает!!!

Не ну, а чего попробовать то можно, Вы же ничего не теряете!!!

    Дорогой пользователь! Огромная просьба, поблагодарите релизера, оцените раздачу и оставьте свои комментарий, если Вы скачали Остров через торрент бесплатно! Внесите свою лепту в развитие PiratBit!
    Комментировать посты могут только пользователи прошедшие не сложную регистрацию
    Показать сообщения:    

    Остров через торрент
    Скачать бесплатно Остров
    Остров скачать торрент
    Остров смотреть онлайн
    Cкачать фильм Остров бесплатно
    Остров скачать торрент в хорошем качестве
    Остров смотреть онлайн бесплатно в хорошем качестве


    Вы не можете начинать темы
    Вы не можете отвечать на сообщения
    Вы не можете редактировать свои сообщения
    Вы не можете удалять свои сообщения
    Вы не можете голосовать в опросах
    Вы не можете прикреплять файлы к сообщениям
    Вы можете скачивать файлы