iTunes

1+1

iTunes

мы

iTunes

1

iTunes

Чернобыль

iTunes

Ральф против интернета

Лицензия

ПШазам

Лицензия

Игра престолов

Лицензия

30
pack

ВАЖНО

!!Акция!!

Alien_RageХит недели

RePack

Resident Evil 21

ИГРА 18+

pack

RePack

Metro:Exodus

!!Акция!!

Alien_Rage

RePack

fifa19

RePack

Assassins Creed: Odyssey

RePack

NEED FOR SPEED™ PAYBACK

3 сезон

9 сезон

Бесстыжие 9 сезон

Все сериалы

все сериалы на PB.wtf

RePack

FAR CRY 5
Ребята, катастрофически не хватает 7730р. для оплаты серверов за АВГУСТ (всвязи с блокировками трафик упал в 3 раза), 1-2р., выручайте.
  

Морпехи 3: В осаде / Jarhead 3: The Siege (Уильям Кауфман) [2016 г., боевик, военный, HDRip, Дубляж "Лицензия"] piratbit.cc

Морпехи 3: В осаде через торрент piratbit.cc

Размер: 706 MB | Добавлен: 3 года 7 мес. назад | Торрент скачан:201 раз
Скачать  

03-02-2016 18:11 Морпехи 3: В осаде Скачать торрент  

Морпехи 3: В осаде / Jarhead 3: The Siege
Год выпуска: 2016
Страна: США / Universal 1440 Entertainment
Жанр: боевик, военный
Продолжительность: 01:28:59
Перевод: Дубляж (Лицензия)

Режиссер: Уильям Кауфман

IMDB


В ролях: Чарли Вебер, Скотт Эдкинс, Том Эйнсли, Эрик Валдез, Данте Баско, Саша Джексон, Деннис Хейсбёрт, Стефен Хоган, Джо Корригалл, Адриан Ховард, Даниил Эльдаров

Описание: Отряду морских пехотинцев, чья миссия — защита посольства США в одной из ближневосточных стран, приходится отражать внезапную атаку противника.

Качество: HDRip
Формат: AVI
Видео кодек: XviD
Аудио кодек: AC3
Видео: MPEG4, XviD, 640x272 (2.35:1), 23.976 fps, 972 Kbps (0.233 bit/pixel)
Аудио: MP3, 48.0 KHz, 2 ch, 128 Kbps, CBR
скриншот   скриншот   скриншот   скриншот   скриншот   скриншот  

Общее
Полное имя : F:\кино\Морпехи 3. В осаде.2016.D.HDRip.700mb.avi
Формат : AVI
Формат/Информация : Audio Video Interleave
Размер файла : 706 Мбайт
Продолжительность : 1 ч. 28 м.
Общий поток : 1109 Кбит/сек
Программа кодирования : VirtualDubMod 1.5.10.3 | www.virtualdub-fr.org || (build 2550/release)
Библиотека кодирования : VirtualDubMod build 2550/release

Видео
Идентификатор : 0
Формат : MPEG-4 Visual
Профиль формата : Advanced Simple@L5
Параметр BVOP формата : 2
Параметр QPel формата : Нет
Параметр GMC формата : Без точки перехода
Параметр матрицы формата : Default (H.263)
Идентификатор кодека : XVID
Идентификатор кодека/Подсказка : XviD
Продолжительность : 1 ч. 28 м.
Битрейт : 972 Кбит/сек
Ширина : 640 пикселей
Высота : 272 пикселя
Соотношение сторон : 2,35:1
Частота кадров : 23,976 (23976/1000) кадра/сек
Цветовое пространство : YUV
Субдискретизация насыщенности : 4:2:0
Битовая глубина : 8 бит
Тип развёртки : Прогрессивная
Метод сжатия : С потерями
Бит/(Пиксели*Кадры) : 0.233
Размер потока : 619 Мбайт (88%)
Библиотека кодирования : XviD 1.2.1 (UTC 2008-12-04)

Аудио
Идентификатор : 1
Формат : MPEG Audio
Версия формата : Version 1
Профиль формата : Layer 3
Режим : Joint stereo
Расширение режима : MS Stereo
Идентификатор кодека : 55
Идентификатор кодека/Подсказка : MP3
Продолжительность : 1 ч. 28 м.
Вид битрейта : Постоянный
Битрейт : 128 Кбит/сек
Каналы : 2 канала
Частота : 48,0 КГц
Метод сжатия : С потерями
Размер потока : 81,5 Мбайт (12%)
Выравнивание : Соединение по промежуткам
Продолжительность промежутка : 42 мс. (1,00 видеокадр)
Время предзагрузки промежутка : 504 мс.
Библиотека кодирования : LAME3.99r
Настройки программы : -m j -V 4 -q 2 -lowpass 17 -b 128

piratbit.cc



Скачать Морпехи 3: В осаде через торрент http://pic.kartinco.top/images/11/7rxqx.jpg Скачать фильм Морпехи 3: В осаде через торрент бесплантно в хорошем качестве Описание: Отряду морских пехотинцев, чья миссия — защита посольства США в одной из ближневосточных стран, приходится отражать внезапную ... 9.2 10 11
Торрент: Зарегистрирован [2016-02-03 18:12] · скачан: 201 раз
Статус: √ проверено
Размер: 706 MB
Как cкачать? Как скачать Морпехи 3: В осаде через торрент | qTorrent

% Раздел Тема Автор DL S | L
Фильмы [HD 720p, 1080p] (Хороший звук DUB, MVO) [ 10.64 GB ] Морпехи 3: В осаде / Jarhead 3: The Siege [2016 BDRip ] Бумер Скачать
1 | 0
Фильмы 2016 [DVDrip, WEB-DLRip, HDrip] (DUB, MVO) [ 2.18 GB ] Морпехи 3: В осаде / Jarhead 3: The Siege [2016 военный BDRip-AVC от sokol_ok] DUB sokol_ok Скачать
2 | 0
Фильмы 2016 [DVDrip, WEB-DLRip, HDrip] (DUB, MVO) [ 1.45 GB ] Морпехи 3: В осаде / Jarhead 3: The Siege [2016 военный BDRip-AVC от sokol_ok] DUB sokol_ok Скачать
2 | 0
Фильмы 2016 [DVDrip, WEB-DLRip, HDrip] (DUB, MVO) [ 1.81 GB ] Морпехи 3: В осаде / Jarhead 3: The Siege [2016 военный BDRip-AVC от ExKinoRay DUB ] Ворон Скачать
1 | 0
Фильмы 2016 [DVDrip, WEB-DLRip, HDrip] (DUB, MVO) [ 2.18 GB ] Морпехи 3: В осаде / Jarhead 3: The Siege [2016 военный BDRip-AVC] DUB potroks Скачать
1 | 0
Фильмы (Blu-ray, BD-Remux, HDDVD) [ 30.71 GB ] Морпехи 3: В осаде / Jarhead 3: The Siege [2016 Blu-ray ] Бумер Скачать
1 | 0
Фильмы (Blu-ray, BD-Remux, HDDVD) [ 23.13 GB ] Морпехи 3: В осаде / Jarhead 3: The Siege [2016 BD Remux ] Бумер Скачать
1 | 0


>> Регистрируемся здесь <<






Отзывы и комментарии о схеме читаем и пишем здесь: ---> Отзывы и комментарии о схеме

Новые благодарочки в телеграм довольных пользователей:
скриншот   скриншот   скриншот   скриншот   скриншот

03-02-2016 18:36 Морпехи 3: В осаде Скачать торрент  

coc900, как фильм?piratbit.cc



04-02-2016 11:01 Морпехи 3: В осаде Скачать торрент  

kotec писал(а):

coc900, как фильм?

нормальный не хуже 1 и 2 части точноpiratbit.cc



    Дорогой пользователь! Огромная просьба, поблагодарите релизера, оцените раздачу и оставьте свои комментарий, если Вы скачали Морпехи 3: В осаде через торрент бесплатно! Внесите свою лепту в развитие PiratBit!
    Комментировать посты могут только пользователи прошедшие не сложную регистрацию
    Показать сообщения:    

    Морпехи 3: В осаде через торрент
    Скачать бесплатно Морпехи 3: В осаде
    Морпехи 3: В осаде скачать торрент
    Морпехи 3: В осаде смотреть онлайн
    Cкачать фильм Морпехи 3: В осаде бесплатно
    Морпехи 3: В осаде скачать торрент в хорошем качестве
    Морпехи 3: В осаде смотреть онлайн бесплатно в хорошем качестве


    Вы не можете начинать темы
    Вы не можете отвечать на сообщения
    Вы не можете редактировать свои сообщения
    Вы не можете удалять свои сообщения
    Вы не можете голосовать в опросах
    Вы не можете прикреплять файлы к сообщениям
    Вы можете скачивать файлы