Лицензия

30

iTunes

мы

iTunes

1

1 сезон

Чернобыль

1 сезон

Ральф против интернета

MVO

Покемон. Детектив Пикачу

8 сезон

Игра престолов

iTunes

1+1

ИГРА 18+

pack

ВАЖНО

!!Акция!!

Alien_RageХит недели

RePack

Resident Evil 21
pack

RePack

Metro:Exodus

!!Акция!!

Alien_Rage

RePack

fifa19

RePack

Assassins Creed: Odyssey

RePack

NEED FOR SPEED™ PAYBACK

3 сезон

9 сезон

Бесстыжие 9 сезон

Все сериалы

все сериалы на PB.wtf

RePack

FAR CRY 5
Ребята, катастрофически не хватает 2730р. для оплаты серверов за МАЙ (всвязи с блокировками трафик упал в 3 раза), 1-2р., выручайте.
  

Московские каникулы (Алла Сурикова ) [1995, мелодрама, комедия, TVRip] piratbit.cc

Московские каникулы через торрент piratbit.cc

Размер: 1.37 GB | Добавлен: 3 года 4 мес. назад | Торрент скачан:51 раз
Скачать  

05-02-2016 16:03 Московские каникулы Скачать торрент  

Московские каникулы

Год выпуска: 1995
Страна: Россия
Жанр: мелодрама, комедия

Продолжительность: 01:27:27
Перевод: Оригинальный
Режиссер: Алла Сурикова
В ролях: Ирина Селезнева (Лучана Фарини), Леонид Ярмольник (Гриша), Наталья Гундарева (Дуся), Леонид Якубович (милиционер), Марина Дюжева (бывшая жена Гриши), Армен Джигарханян (представитель авиакомпании), Лия Ахеджакова (аферистка), Олег Табаков (Маурицио Костеллани), Александр Адабашьян (алкоголик), Михаил Мишин (алкоголик), Сергей Никоненко (сотрудник аэропорта), Наталья Крачковская (дежурный администратор в гостинице)
Описание:
Богатая итальянка Лучана Фарини едет в Россию на родину предков, где хочет похоронить свою любимую собачку. Легкая детективная интрига, нелепости российского быта и... любовь с первого взгляда.
Рейтинг:

Качество: TVRip
Формат: AVI
Видео кодек: XviD
Аудио кодек:AC3
Видео: XviD, 720x544 (4:3), 2041 kbps, 25 fps, 0,208 bpp
Аудио: AC3 / 2.0 / 48 kHz / 192 kbps / 16 bit

Код:

Общее
Полное имя                               : D:\Каникулы.avi
Формат                                   : AVI
Формат/Информация                        : Audio Video Interleave
Размер файла                             : 1,37 Гбайт
Продолжительность                        : 1 ч. 27 м.
Общий поток                              : 2243 Кбит/сек
Библиотека кодирования                   : VirtualDub-MPEG2 build 24600/release

Видео
Идентификатор                            : 0
Формат                                   : MPEG-4 Visual
Профиль формата                          : Advanced Simple@L5
Параметр BVOP формата                    : 2
Параметр QPel формата                    : Нет
Параметр GMC формата                     : Без точки перехода
Параметр матрицы формата                 : Default (H.263)
Режим смешивания                         : Сжатый битовый поток
Идентификатор кодека                     : XVID
Идентификатор кодека/Подсказка           : XviD
Продолжительность                        : 1 ч. 27 м.
Битрейт                                  : 2041 Кбит/сек
Ширина                                   : 720 пикселей
Высота                                   : 544 пикселя
Соотношение сторон                       : 4:3
Частота кадров                           : 25,000 кадров/сек
Цветовое пространство                    : YUV
Субдискретизация насыщенности            : 4:2:0
Битовая глубина                          : 8 бит
Тип развёртки                            : Прогрессивная
Метод сжатия                             : С потерями
Бит/(Пиксели*Кадры)                      : 0.208
Размер потока                            : 1,25 Гбайт (91%)
Библиотека кодирования                   : XviD 1.1.2 (UTC 2006-11-01)

Аудио
Идентификатор                            : 1
Формат                                   : AC-3
Формат/Информация                        : Audio Coding 3
Расширение режима                        : CM (complete main)
Параметр Endianness формата              : Big
Идентификатор кодека                     : 2000
Продолжительность                        : 1 ч. 27 м.
Вид битрейта                             : Постоянный
Битрейт                                  : 192 Кбит/сек
Каналы                                   : 2 канала
Расположение каналов                     : Front: L R
Частота                                  : 48,0 КГц
Битовая глубина                          : 16 бит
Метод сжатия                             : С потерями
Размер потока                            : 120 Мбайт (9%)
Выравнивание                             : Соединение по промежуткам
Продолжительность промежутка             : 40  мс. (1,00 видеокадр)
Время предзагрузки промежутка            : 512  мс.

piratbit.cc



Скачать Московские каникулы через торрент http://i73.fastpic.ru/big/2016/0205/61/074fc4f9bfdb9e74233e73f6af975261.jpg Скачать фильм Московские каникулы через торрент бесплантно в хорошем качестве Описание: Богатая итальянка Лучана Фарини едет в Россию на родину предков, где хочет похоронить свою любимую собачку. Легкая детективная ... 10 10 3
Info! Золотая раздача, скачанное не засчитывается.
Торрент: Зарегистрирован [2016-02-05 16:03] · скачан: 51 раз
Статус: √ проверено
Размер: 1.37 GB
Как cкачать? Как скачать Московские каникулы через торрент | qTorrent


>> Регистрируемся здесь <<






Отзывы и комментарии о схеме читаем и пишем здесь: ---> Отзывы и комментарии о схеме

Новые благодарочки в телеграм довольных пользователей:
скриншот   скриншот   скриншот   скриншот   скриншот
    Дорогой пользователь! Огромная просьба, поблагодарите релизера, оцените раздачу и оставьте свои комментарий, если Вы скачали Московские каникулы через торрент бесплатно! Внесите свою лепту в развитие PiratBit!
    Комментировать посты могут только пользователи прошедшие не сложную регистрацию
    Показать сообщения:    

    Московские каникулы через торрент
    Скачать бесплатно Московские каникулы
    Московские каникулы скачать торрент
    Московские каникулы смотреть онлайн
    Cкачать фильм Московские каникулы бесплатно
    Московские каникулы скачать торрент в хорошем качестве
    Московские каникулы смотреть онлайн бесплатно в хорошем качестве


    Вы не можете начинать темы
    Вы не можете отвечать на сообщения
    Вы не можете редактировать свои сообщения
    Вы не можете удалять свои сообщения
    Вы не можете голосовать в опросах
    Вы не можете прикреплять файлы к сообщениям
    Вы можете скачивать файлы