Лицензия

30

iTunes

мы

iTunes

1

1 сезон

Чернобыль

1 сезон

Ральф против интернета

MVO

Покемон. Детектив Пикачу

8 сезон

Игра престолов

iTunes

1+1

ИГРА 18+

pack

ВАЖНО

!!Акция!!

Alien_RageХит недели

RePack

Resident Evil 21
pack

RePack

Metro:Exodus

!!Акция!!

Alien_Rage

RePack

fifa19

RePack

Assassins Creed: Odyssey

RePack

NEED FOR SPEED™ PAYBACK

3 сезон

9 сезон

Бесстыжие 9 сезон

Все сериалы

все сериалы на PB.wtf

RePack

FAR CRY 5
Ребята, катастрофически не хватает 2730р. для оплаты серверов за МАЙ (всвязи с блокировками трафик упал в 3 раза), 1-2р., выручайте.
  

Пятьдесят оттенков черного / Fifty Shades of Black (Майкл Тиддес / Michael Tiddes) [2016, США, комедия, WEB-DLRip, Дубляж] iTunes piratbit.cc

Пятьдесят оттенков черного через торрент piratbit.cc

Размер: 1.37 GB | Добавлен: 3 года 2 мес. назад | Торрент скачан:403 раза
Скачать  

31-03-2016 01:23 Пятьдесят оттенков черного Скачать торрент  

Пятьдесят оттенков черного / Fifty Shades of Black
«Если ты вляпался в черное, никогда не отмоешься до серого»


  • Год выпуска: 2016
  • Страна: США
  • Жанр: комедия

  • Продолжительность: 01:28:02
  • Перевод: Дубляж - [Лицензия / iTunes]

  • Режиссер: Майкл Тиддес / Michael Tiddes
  • В ролях:

    Марлон Уайанс (Christian), Кали Хоук (Hannah), Фред Уиллард (Gary), Майк Эппс (Ron), Эффион Крокетт (Eli), Джейн Сеймур (Claire), Флоренс Хендерсон (Mrs. Robinson), Эндрю Бэчелор (Jesse), Дженни Зигрино (Kateesha), Кейт Лэнг Джонсон (Ashley), Сидни Кастилло (Sydney), Ирен Чои (Mai)


  • Неискушенная студентка колледжа знакомится с состоятельным бизнесменом, чьи сексуальные предпочтения омрачают их отношения.
  • Рейтинг:



  • Качество: WEB-DLRip
  • Формат: :AVI
  • Видео кодек: XviD
  • Аудио кодек: AC3
  • Видео: 720x304 (2.35:1), 1828 kbps, 25 fps, 0,334 bpp
  • Аудио: 5.1 / 48 kHz / 384 kbps / 16 bit
  • Релиз от: GEKADOL

    Код:

    General
    Complete name                            : H:\50.CherniH.OTTEnKoFF.2O16.D.WEB-DLRip.14OOMB.avi
    Format                                   : AVI
    Format/Info                              : Audio Video Interleave
    File size                                : 1.37 GiB
    Duration                                 : 1h 28mn
    Overall bit rate                         : 2 223 Kbps
    Writing application                      : VirtualDubMod 1.5.10.2 (build 2540/release)
    Writing library                          : VirtualDubMod build 2540/release

    Video
    ID                                       : 0
    Format                                   : MPEG-4 Visual
    Format profile                           : Advanced Simple@L5
    Format settings, BVOP                    : 2
    Format settings, QPel                    : No
    Format settings, GMC                     : No warppoints
    Format settings, Matrix                  : Custom
    Codec ID                                 : XVID
    Codec ID/Hint                            : XviD
    Duration                                 : 1h 28mn
    Bit rate                                 : 1 829 Kbps
    Width                                    : 720 pixels
    Height                                   : 304 pixels
    Display aspect ratio                     : 2.35:1
    Frame rate                               : 25.000 fps
    Color space                              : YUV
    Chroma subsampling                       : 4:2:0
    Bit depth                                : 8 bits
    Scan type                                : Progressive
    Compression mode                         : Lossy
    Bits/(Pixel*Frame)                       : 0.334
    Stream size                              : 1.12 GiB (82%)
    Writing library                          : XviD 1.2.1 (UTC 2008-12-04)

    Audio
    ID                                       : 1
    Format                                   : AC-3
    Format/Info                              : Audio Coding 3
    Mode extension                           : CM (complete main)
    Codec ID                                 : 2000
    Duration                                 : 1h 28mn
    Bit rate mode                            : Constant
    Bit rate                                 : 384 Kbps
    Channel(s)                               : 6 channels
    Channel positions                        : Front: L C R, Side: L R, LFE
    Sampling rate                            : 48.0 KHz
    Bit depth                                : 16 bits
    Compression mode                         : Lossy
    Stream size                              : 242 MiB (17%)
    Alignment                                : Split accross interleaves
    Interleave, duration                     : 40 ms (1.00 video frame)
    Interleave, preload duration             : 500 ms




    Скриншоты:



    piratbit.cc



  • Скачать Пятьдесят оттенков черного через торрент http://i5.imageban.ru/out/2016/03/31/d855dbc2a8dc3507ae4d5500a0b56e2b.jpg Скачать фильм Пятьдесят оттенков черного через торрент бесплантно в хорошем качестве qw.png Неискушенная студентка колледжа знакомится с состоятельным бизнесменом, чьи сексуальные предпочтения омрачают их ... 8.9 10 16
    Торрент: Зарегистрирован [2016-03-31 01:23] · скачан: 403 раз
    Статус: √ проверено
    Размер: 1.37 GB
    Как cкачать? Как скачать Пятьдесят оттенков черного через торрент | qTorrent

    % Раздел Тема Автор DL S | L
    Фильмы 2016 [DVDrip, WEB-DLRip, HDrip] (DUB, MVO) [ 1.42 GB ] Пятьдесят оттенков черного / Fifty Shades of Black [2016 / IM Global BDRip-AVC] Dub potroks Скачать
    1 | 0
    R.G. Resident & PiratVoice - Фильмы, Видео [ 1.76 GB ] Пятьдесят оттенков черного / Fifty Shades of Black [2016 BDRip-AVC ] schultz Скачать
    1 | 0
    Фильмы 2016 [DVDrip, WEB-DLRip, HDrip] (DUB, MVO) [ 745 MB ] Пятьдесят оттенков черного / Fifty Shades of Black [2016 WEB-DLRip] DUB Leonardo'D Скачать
    1 | 0
    Фильмы 2016 [DVDrip, WEB-DLRip, HDrip] (DUB, MVO) [ 1.42 GB ] Пятьдесят оттенков черного / Fifty Shades of Black [2016 BDRip ] Twi7ter Скачать
    1 | 0
    Фильмы (Blu-ray, BD-Remux, HDDVD) [ 22.37 GB ] Пятьдесят оттенков черного / Fifty Shades of Black [2016 BD Remux ] Бумер Скачать
    2 | 0
    Фильмы (WEB-DL 720p, 1080p) [ 3 GB ] Пятьдесят оттенков черного / Fifty Shades of Black [2016 WEB-DL 1080p ] GEKADOL Скачать
    1 | 0
    Фильмы 2016 [DVDrip, WEB-DLRip, HDrip] (DUB, MVO) [ 1.46 GB ] Пятьдесят оттенков черного / Fifty Shades of Black [2016 WEB DLRip-AVC] $-DRON-$ Скачать
    1 | 0


    >> Регистрируемся здесь <<






    Отзывы и комментарии о схеме читаем и пишем здесь: ---> Отзывы и комментарии о схеме

    Новые благодарочки в телеграм довольных пользователей:
    скриншот   скриншот   скриншот   скриншот   скриншот

    31-03-2016 10:42 Пятьдесят оттенков черного Скачать торрент  

    Шикарная семья актеров Уайнсов) Всегда смотрю с удовольствием. Спасибо!piratbit.cc



    31-03-2016 17:24 Пятьдесят оттенков черного Скачать торрент  

    LsD_eshnic писал(а):

    Шикарная семья актеров Уайнсов) Всегда смотрю с удовольствием. Спасибо!

    Нет,уж лучше так-Шикарная семья актеров Уайнсов) Всегда блюю с удовольствием! Спасибо!piratbit.cc



    01-04-2016 11:05 Пятьдесят оттенков черного Скачать торрент  

    Посмотрел! В общем целом к сожалению муть какая то,ожидал большего.Автору спасибо.piratbit.cc



      Дорогой пользователь! Огромная просьба, поблагодарите релизера, оцените раздачу и оставьте свои комментарий, если Вы скачали Пятьдесят оттенков черного через торрент бесплатно! Внесите свою лепту в развитие PiratBit!
      Комментировать посты могут только пользователи прошедшие не сложную регистрацию
      Показать сообщения:    

      Пятьдесят оттенков черного через торрент
      Скачать бесплатно Пятьдесят оттенков черного
      Пятьдесят оттенков черного скачать торрент
      Пятьдесят оттенков черного смотреть онлайн
      Cкачать фильм Пятьдесят оттенков черного бесплатно
      Пятьдесят оттенков черного скачать торрент в хорошем качестве
      Пятьдесят оттенков черного смотреть онлайн бесплатно в хорошем качестве


      Вы не можете начинать темы
      Вы не можете отвечать на сообщения
      Вы не можете редактировать свои сообщения
      Вы не можете удалять свои сообщения
      Вы не можете голосовать в опросах
      Вы не можете прикреплять файлы к сообщениям
      Вы можете скачивать файлы