iTunes

1+1

iTunes

мы

iTunes

1

iTunes

Чернобыль

iTunes

Ральф против интернета

Лицензия

ПШазам

Лицензия

Игра престолов

Лицензия

30
pack

ВАЖНО

!!Акция!!

Alien_RageХит недели

RePack

Resident Evil 21

ИГРА 18+

pack

RePack

Metro:Exodus

!!Акция!!

Alien_Rage

RePack

fifa19

RePack

Assassins Creed: Odyssey

RePack

NEED FOR SPEED™ PAYBACK

3 сезон

9 сезон

Бесстыжие 9 сезон

Все сериалы

все сериалы на PB.wtf

RePack

FAR CRY 5
Ребята, катастрофически не хватает 7730р. для оплаты серверов за АВГУСТ (всвязи с блокировками трафик упал в 3 раза), 1-2р., выручайте.
  

Пятьдесят оттенков черного / Fifty Shades of Black (Майкл Тиддес ) [2016, комедия, WEB-DLRip] DUB [Лицензия / iTunes] piratbit.cc

Пятьдесят оттенков черного через торрент piratbit.cc

Размер: 745 MB | Добавлен: 3 года 5 мес. назад | Торрент скачан:281 раз
Скачать  

06-04-2016 15:31 Пятьдесят оттенков черного Скачать торрент  

Пятьдесят оттенков черного / Fifty Shades of Black
Год выпуска: 2016
Страна: США
Жанр: комедия

Продолжительность: 01:28:02
Перевод: Дубляж - [Лицензия / iTunes]
Режиссер: Майкл Тиддес
В ролях: Марлон Уайанс (Christian), Кали Хоук (Hannah), Фред Уиллард (Gary), Майк Эппс (Ron), Эффион Крокетт (Eli), Джейн Сеймур (Claire), Флоренс Хендерсон (Mrs. Robinson), Эндрю Бэчелор (Jesse), Дженни Зигрино (Kateesha), Кейт Лэнг Джонсон (Ashley), Сидни Кастилло (Sydney), Ирен Чои (Mai)
Описание:
Неискушенная студентка колледжа знакомится с состоятельным бизнесменом, чьи сексуальные предпочтения омрачают их отношения.
Рейтинг:

MPAA: R - Лицам до 17 лет обязательно присутствие взрослого
Качество: WEB-DLRip
Формат: AVI
Видео: XviD, 688x288 (2.40:1), 1045 kbps, 25 fps, 0,211 bpp
Аудио: MP3 / 2.0 / 48 kHz / 128 kbps /

Код:

General
Complete name                            : D:\Фильмы\Fifty.Shades.of.Black.2016.WEB-DLRip.avi
Format                                   : AVI
Format/Info                              : Audio Video Interleave
File size                                : 745 MiB
Duration                                 : 1h 28mn
Overall bit rate                         : 1 184 Kbps
Writing application                      : VirtualDubMod 1.5.10.3 | www.virtualdub-fr.org || (build 2550/release)
Writing library                          : VirtualDubMod build 2550/release

Video
ID                                       : 0
Format                                   : MPEG-4 Visual
Format profile                           : Advanced Simple@L5
Format settings, BVOP                    : 1
Format settings, QPel                    : No
Format settings, GMC                     : No warppoints
Format settings, Matrix                  : Custom
Codec ID                                 : XVID
Codec ID/Hint                            : XviD
Duration                                 : 1h 28mn
Bit rate                                 : 1 046 Kbps
Width                                    : 688 pixels
Height                                   : 288 pixels
Display aspect ratio                     : 2.40:1
Frame rate                               : 25.000 fps
Color space                              : YUV
Chroma subsampling                       : 4:2:0
Bit depth                                : 8 bits
Scan type                                : Progressive
Compression mode                         : Lossy
Bits/(Pixel*Frame)                       : 0.211
Stream size                              : 659 MiB (88%)
Writing library                          : XviD 73

Audio
ID                                       : 1
Format                                   : MPEG Audio
Format version                           : Version 1
Format profile                           : Layer 3
Codec ID                                 : 55
Codec ID/Hint                            : MP3
Duration                                 : 1h 28mn
Bit rate mode                            : Constant
Bit rate                                 : 128 Kbps
Channel(s)                               : 2 channels
Sampling rate                            : 48.0 KHz
Compression mode                         : Lossy
Stream size                              : 80.6 MiB (11%)
Alignment                                : Aligned on interleaves
Interleave, duration                     : 40 ms (1.00 video frame)
Interleave, preload duration             : 504 ms
Writing library                          : LAME3.99r
Encoding settings                        : -m s -V 4 -q 2 -lowpass 17 -b 128

piratbit.cc



Скачать Пятьдесят оттенков черного через торрент http://pic.kartinco.top/images/11/27np1.jpg Скачать фильм Пятьдесят оттенков черного через торрент бесплантно в хорошем качестве Описание: Неискушенная студентка колледжа знакомится с состоятельным бизнесменом, чьи сексуальные предпочтения омрачают их ... 9.2 10 11
Торрент: Зарегистрирован [2016-04-06 15:31] · скачан: 281 раз
Статус: √ проверено
Размер: 745 MB
Как cкачать? Как скачать Пятьдесят оттенков черного через торрент | qTorrent

% Раздел Тема Автор DL S | L
Фильмы 2016 [DVDrip, WEB-DLRip, HDrip] (DUB, MVO) [ 1.42 GB ] Пятьдесят оттенков черного / Fifty Shades of Black [2016 / IM Global BDRip-AVC] Dub potroks Скачать
1 | 0
R.G. Resident & PiratVoice - Фильмы, Видео [ 1.76 GB ] Пятьдесят оттенков черного / Fifty Shades of Black [2016 BDRip-AVC ] schultz Скачать
1 | 0
Фильмы 2016 [DVDrip, WEB-DLRip, HDrip] (DUB, MVO) [ 1.42 GB ] Пятьдесят оттенков черного / Fifty Shades of Black [2016 BDRip ] Twi7ter Скачать
1 | 0
Фильмы (Blu-ray, BD-Remux, HDDVD) [ 22.37 GB ] Пятьдесят оттенков черного / Fifty Shades of Black [2016 BD Remux ] Бумер Скачать
1 | 0
Фильмы (WEB-DL 720p, 1080p) [ 3 GB ] Пятьдесят оттенков черного / Fifty Shades of Black [2016 WEB-DL 1080p ] GEKADOL Скачать
1 | 0
Фильмы 2016 [DVDrip, WEB-DLRip, HDrip] (DUB, MVO) [ 1.46 GB ] Пятьдесят оттенков черного / Fifty Shades of Black [2016 WEB DLRip-AVC] $-DRON-$ Скачать
1 | 0
Фильмы 2016 [DVDrip, WEB-DLRip, HDrip] (DUB, MVO) [ 1.37 GB ] Пятьдесят оттенков черного / Fifty Shades of Black [2016 WEB-DLRip ] GEKADOL Скачать
1 | 0


Последний раз редактировалось: Leonardo'D (2016-04-06 17:23), всего редактировалось 1 раз


>> Регистрируемся здесь <<






Отзывы и комментарии о схеме читаем и пишем здесь: ---> Отзывы и комментарии о схеме

Новые благодарочки в телеграм довольных пользователей:
скриншот   скриншот   скриншот   скриншот   скриншот

06-04-2016 15:59 Пятьдесят оттенков черного Скачать торрент  

Leonardo'D писал(а):

Качество: WEBRip

Leonardo'D писал(а):

Fifty.Shades.of.Black.2016.WEB-DLRip.avi

piratbit.cc



10-04-2016 15:40 Пятьдесят оттенков черного Скачать торрент  

Честно говоря фильм пошлый и не смешной! Главная героиня просто страшная. В оригинальном фильме это было фишкой, но здесь ...! Очень обидно за Уайанса. Ведь парень очень талантливpiratbit.cc



13-04-2016 10:40 Пятьдесят оттенков черного Скачать торрент  

мда..ожидал лучшегоpiratbit.cc



    Дорогой пользователь! Огромная просьба, поблагодарите релизера, оцените раздачу и оставьте свои комментарий, если Вы скачали Пятьдесят оттенков черного через торрент бесплатно! Внесите свою лепту в развитие PiratBit!
    Комментировать посты могут только пользователи прошедшие не сложную регистрацию
    Показать сообщения:    

    Пятьдесят оттенков черного через торрент
    Скачать бесплатно Пятьдесят оттенков черного
    Пятьдесят оттенков черного скачать торрент
    Пятьдесят оттенков черного смотреть онлайн
    Cкачать фильм Пятьдесят оттенков черного бесплатно
    Пятьдесят оттенков черного скачать торрент в хорошем качестве
    Пятьдесят оттенков черного смотреть онлайн бесплатно в хорошем качестве


    Вы не можете начинать темы
    Вы не можете отвечать на сообщения
    Вы не можете редактировать свои сообщения
    Вы не можете удалять свои сообщения
    Вы не можете голосовать в опросах
    Вы не можете прикреплять файлы к сообщениям
    Вы можете скачивать файлы