Лицензия

30

iTunes

мы

iTunes

1

1 сезон

Чернобыль

1 сезон

Ральф против интернета

MVO

Покемон. Детектив Пикачу

8 сезон

Игра престолов

iTunes

1+1

ИГРА 18+

pack

ВАЖНО

!!Акция!!

Alien_RageХит недели

RePack

Resident Evil 21
pack

RePack

Metro:Exodus

!!Акция!!

Alien_Rage

RePack

fifa19

RePack

Assassins Creed: Odyssey

RePack

NEED FOR SPEED™ PAYBACK

3 сезон

9 сезон

Бесстыжие 9 сезон

Все сериалы

все сериалы на PB.wtf

RePack

FAR CRY 5
Ребята, катастрофически не хватает 2730р. для оплаты серверов за МАЙ (всвязи с блокировками трафик упал в 3 раза), 1-2р., выручайте.
  

5-я волна / The 5th Wave (Дж. Блэйксон) [2016 г., Фантастика, боевик, триллер, приключения, HDRip] DUB [iTunes] piratbit.cc

5-я волна через торрент piratbit.cc

Размер: 1.37 GB | Добавлен: 3 года 2 мес. назад | Торрент скачан:263 раза
Скачать  

09-04-2016 22:25 5-я волна Скачать торрент  

«We Fight Back»
Год выпуска » 2016
Страна » США
Жанр » Фантастика, боевик, триллер, приключения
Продолжительность » 01:52:22
Перевод » Дублированный • iTunes
Субтитры » Отсутствуют

В ролях
» Хлоя Грейс Морец, Ник Дж. Робинсон, Рон Ливингстон, Мэгги Сифф, Алекс Роу, Мария Белло, Майка Монро, Лив Шрайбер, Закари Артур, Тони Револори


Режиссёр
» Дж. Блэйксон

» Первая волна оставила за собой мглу. От второй успели убежать только самые везучие. Но едва ли можно назвать везучими тех, кто уцелел после третьей. А четвертая волна стерла все человеческие законы, взамен же установила свой, один-единственный: хочешь жить — не верь никому. И вот уже накатывает пятая волна…

• Качество » HDRip
• Формат » avi
• Видео кодек » XviD
• Аудио кодек » AC3
• Видео » 720x304, 23.976 fps, 1348 Кбит/с
• Аудио » Русский (AC-3/ 6 ch / 384 kbps / 48,0 КГц / 16 bit )




Бюджет: $38 000 000
Сборы в США: $34 294 936
Сборы в России: $3 556 174
Сборы в Мире: + $72 189 515 = $106 484 451
Дата мировой премьеры: 14 января 2016
Дата российской премьеры: 21 января 2016, «WDSSPR»
Общее
Полное имя : E:\Новая папка (2)\VoL5na.2O16.D.BDRip.14OOMB.avi
Формат : AVI
Формат/Информация : Audio Video Interleave
Размер файла : 1,37 Гбайт
Продолжительность : 1 ч. 52 м.
Общий поток : 1742 Кбит/сек
Программа кодирования : VirtualDubMod 1.5.10.2 (build 2540/release)
Библиотека кодирования : VirtualDubMod build 2540/release

Видео
Идентификатор : 0
Формат : MPEG-4 Visual
Профиль формата : Advanced Simple@L5
Параметр BVOP формата : 2
Параметр QPel формата : Нет
Параметр GMC формата : Без точки перехода
Параметр матрицы формата : Выборочная
Идентификатор кодека : XVID
Идентификатор кодека/Подсказка : XviD
Продолжительность : 1 ч. 52 м.
Битрейт : 1348 Кбит/сек
Ширина : 720 пикселей
Высота : 304 пикселя
Соотношение сторон : 2,35:1
Частота кадров : 23,976 кадра/сек
Цветовое пространство : YUV
Субдискретизация насыщенности : 4:2:0
Битовая глубина : 8 бит
Тип развёртки : Прогрессивная
Метод сжатия : С потерями
Бит/(Пиксели*Кадры) : 0.257
Размер потока : 1,06 Гбайт (77%)
Библиотека кодирования : XviD 1.2.1 (UTC 2008-12-04)

Аудио
Идентификатор : 1
Формат : AC-3
Формат/Информация : Audio Coding 3
Расширение режима : CM (complete main)
Параметр Endianness формата : Big
Идентификатор кодека : 2000
Продолжительность : 1 ч. 52 м.
Вид битрейта : Постоянный
Битрейт : 384 Кбит/сек
Каналы : 6 каналов
Расположение каналов : Front: L C R, Side: L R, LFE
Частота : 48,0 КГц
Битовая глубина : 16 бит
Метод сжатия : С потерями
Размер потока : 309 Мбайт (22%)
Выравнивание : Разделение по промежуткам
Продолжительность промежутка : 42 мс. (1,00 видеокадр)
Время предзагрузки промежутка : 500 мс.
[/code]
скриншот   скриншот   скриншот   скриншот   скриншот  
piratbit.cc



Скачать 5-я волна через торрент http://pic1.kartinco.top/images/10/mn5ej.jpg Скачать фильм 5-я волна через торрент бесплантно в хорошем качестве В ролях » Хлоя Грейс Морец, Ник Дж. Робинсон, Рон Ливингстон, Мэгги Сифф, Алекс Роу, Мария Белло, Майка Монро, Лив Шрайбер, Закари Артур, ... 9.4 10 11
Торрент: Зарегистрирован [2016-04-09 22:25] · скачан: 263 раз
Статус: √ проверено
Размер: 1.37 GB
Как cкачать? Как скачать 5-я волна через торрент | qTorrent

% Раздел Тема Автор DL S | L
Фильмы (Blu-ray, BD-Remux, HDDVD) [ 23.8 GB ] 5-я волна / The 5th Wave [2016 BD Remux 1080p] DUB [ Blu-Ray CEE] bober100 Скачать
2 | 0
Ultra HD (UHD: 2K, 4K, 8K) — видео сверхвысокой чёткости [ 49.67 GB ] 5-я волна / The 5th Wave [2016 UHD BDRemux 2160p] DUB [] bober100 Скачать
1 | 0
Фильмы (WEB-DL 720p, 1080p) [ 3.73 GB ] 5-я волна / The 5th Wave [2016 WEB DL 720p] $-DRON-$ Скачать
1 | 0
Фильмы 2016 [DVDrip, WEB-DLRip, HDrip] (DUB, MVO) [ 1.46 GB ] 5-я волна / The 5th Wave [2016 BDRip-AVC от sokol_ok] DUB sokol_ok Скачать
1 | 0
Фильмы (Blu-ray, BD-Remux, HDDVD) [ 39.12 GB ] 5-я волна / The 5th Wave [2016 Blu-ray CEE] Russian Mafia Скачать
1 | 0
Фильмы 2016 [DVDrip, WEB-DLRip, HDrip] (DUB, MVO) [ 2.17 GB ] 5-я волна / The 5th Wave [2016 HDRip "BD CEE"] coc900 Скачать
1 | 0
Фильмы 2016 [DVDrip, WEB-DLRip, HDrip] (DUB, MVO) [ 1.46 GB ] 5-я волна / The 5th Wave [2016 BDRip] DUB Twi7ter Скачать
4 | 0


>> Регистрируемся здесь <<






Отзывы и комментарии о схеме читаем и пишем здесь: ---> Отзывы и комментарии о схеме

Новые благодарочки в телеграм довольных пользователей:
скриншот   скриншот   скриншот   скриншот   скриншот
    Дорогой пользователь! Огромная просьба, поблагодарите релизера, оцените раздачу и оставьте свои комментарий, если Вы скачали 5-я волна через торрент бесплатно! Внесите свою лепту в развитие PiratBit!
    Комментировать посты могут только пользователи прошедшие не сложную регистрацию
    Показать сообщения:    

    5-я волна через торрент
    Скачать бесплатно 5-я волна
    5-я волна скачать торрент
    5-я волна смотреть онлайн
    Cкачать фильм 5-я волна бесплатно
    5-я волна скачать торрент в хорошем качестве
    5-я волна смотреть онлайн бесплатно в хорошем качестве


    Вы не можете начинать темы
    Вы не можете отвечать на сообщения
    Вы не можете редактировать свои сообщения
    Вы не можете удалять свои сообщения
    Вы не можете голосовать в опросах
    Вы не можете прикреплять файлы к сообщениям
    Вы можете скачивать файлы