Лицензия

30

iTunes

мы

iTunes

1

1 сезон

Чернобыль

1 сезон

Ральф против интернета

MVO

Покемон. Детектив Пикачу

8 сезон

Игра престолов

iTunes

1+1

ИГРА 18+

pack

ВАЖНО

!!Акция!!

Alien_RageХит недели

RePack

Resident Evil 21
pack

RePack

Metro:Exodus

!!Акция!!

Alien_Rage

RePack

fifa19

RePack

Assassins Creed: Odyssey

RePack

NEED FOR SPEED™ PAYBACK

3 сезон

9 сезон

Бесстыжие 9 сезон

Все сериалы

все сериалы на PB.wtf

RePack

FAR CRY 5
Ребята, катастрофически не хватает 2730р. для оплаты серверов за МАЙ (всвязи с блокировками трафик упал в 3 раза), 1-2р., выручайте.
  

Лес призраков / The Forest (Джейсон Зада / Jason Zada) [2016, США / AI-Film, Lava Bear Films, ужасы, триллер, детектив, BDRip-AVC от potroks] DUB [iTunes] piratbit.cc

Лес призраков через торрент piratbit.cc

Размер: 2.14 GB | Добавлен: 3 года 2 мес. назад | Торрент скачан:407 раз
Скачать  

10-04-2016 09:11 Лес призраков Скачать торрент  

Лес призраков / The Forest
«Каждый приходит сюда в поиске выхода»
Год выпуска: 2016
Страна: США / AI-Film, Lava Bear Films
Жанр: ужасы, триллер, детектив
Продолжительность: 01:33:17
Перевод: Дубляж [iTunes]
Субтитры: английские (Full), английские (SDH)
Навигация по главам: есть
Режиссер: Джейсон Зада / Jason Zada
В ролях:

Натали Дормер (Sara / Jess Price), Оуэн Мэкен (Rob), Стефани Вогт (Valerie), Осаму Танпопо (Homeless Man), Ясуо Тобисима (Sushi Chef), Ибуки Канеда (Mei (Schoolgirl)), Акико Ивасе (Head Teacher), Кикуо Ичикава (Businessman), Норико Сакура (Mayumi), Йозеф Аоки (Visitor Center Morgue Man), Юхо Ямасита (Sakura), Тейлор Кинни (Aiden)
Описание: Юная американка Сара отправляется на поиски сестры-близняшки, которая таинственным образом исчезла на японском острове Хонсю. Поиски приводят к подножью горы Фудзи, в таинственный лес, который пользуется дурной славой. Сара не подозревала, что она вступает в мрачный мир призраков, злых и измученных душ, которые охотятся на любого, кто блуждает по их мрачному лесу...

Качество: BDRip-AVC
Формат: MKV
Видео кодек: AVC
Аудио кодек: AC3
Видео: 1104x596 (1,85:1), 2449 kbps, 23,976 fps, 0.155 bit/pixel
Аудио#1: AC3 / 5.1 / 48 kHz / 384 kbps / 16 bit | RUS
Аудио#2: AC3 / 5.1 / 48 kHz / 448 kbps / 16 bit | RUS

Код:

Общее
Уникальный идентификатор : 254438163171569670524206318088960687145 (0xBF6B01FB8E8634F39BDFF6C94BAD3C29)
Полное имя : Les.Prizrakov.2016.DUAL.BDRip.x264.by_potroks.mkv
Формат : Matroska
Версия формата : Version 4 / Version 2
Размер файла : 2,14 Гбайт
Продолжительность : 1 ч. 33 м.
Общий поток : 3281 Кбит/сек
Название фильма : The Forest (2016)
Дата кодирования : UTC 2016-04-06 03:58:14
Программа кодирования : mkvmerge v5.9.0 ('On The Loose') built on Dec 15 2012 16:39:58
Библиотека кодирования : libebml v1.3.0 + libmatroska v1.4.0

Видео
Идентификатор : 1
Формат : AVC
Формат/Информация : Advanced Video Codec
Профиль формата : High@L4.1
Параметр CABAC формата : Да
Параметр ReFrames формата : 10 кадров
Идентификатор кодека : V_MPEG4/ISO/AVC
Продолжительность : 1 ч. 33 м.
Битрейт : 2449 Кбит/сек
Ширина : 1104 пикселя
Высота : 596 пикселей
Соотношение сторон : 1,85:1
Режим частоты кадров : Постоянный
Частота кадров : 23,976 кадра/сек
Цветовое пространство : YUV
Субдискретизация насыщенности : 4:2:0
Битовая глубина : 8 бит
Тип развёртки : Прогрессивная
Бит/(Пиксели*Кадры) : 0.155
Размер потока : 1,55 Гбайт (73%)
Заголовок : potroks
Библиотека кодирования : x264 core 148 r2665M a01e339
Настройки программы : cabac=1 / ref=10 / deblock=1:-3:-3 / analyse=0x3:0x133 / me=umh / subme=11 / psy=1 / psy_rd=0.94:0.00 / mixed_ref=1 / me_range=48 / chroma_me=1 / trellis=2 / 8x8dct=1 / cqm=0 / deadzone=21,11 / fast_pskip=0 / chroma_qp_offset=-2 / threads=9 / lookahead_threads=2 / sliced_threads=0 / nr=0 / decimate=1 / interlaced=0 / bluray_compat=0 / constrained_intra=0 / bframes=11 / b_pyramid=2 / b_adapt=2 / b_bias=0 / direct=3 / weightb=1 / open_gop=0 / weightp=2 / keyint=240 / keyint_min=23 / scenecut=40 / intra_refresh=0 / rc=2pass / mbtree=0 / bitrate=2449 / ratetol=1.0 / qcomp=0.70 / qpmin=0 / qpmax=69 / qpstep=4 / cplxblur=20.0 / qblur=0.5 / ip_ratio=1.40 / pb_ratio=1.30 / aq=1:0.85
Язык : English
Default : Да
Forced : Нет

Аудио #1
Идентификатор : 2
Формат : AC-3
Формат/Информация : Audio Coding 3
Расширение режима : CM (complete main)
Параметр Endianness формата : Big
Идентификатор кодека : A_AC3
Продолжительность : 1 ч. 33 м.
Вид битрейта : Постоянный
Битрейт : 384 Кбит/сек
Каналы : 6 каналов
Расположение каналов : Front: L C R, Side: L R, LFE
Частота : 48,0 КГц
Метод сжатия : С потерями
Размер потока : 256 Мбайт (12%)
Заголовок : Dub | DD 5.1 @ 384 kbps - iTunes
Язык : Russian
Default : Да
Forced : Нет

Аудио #2
Идентификатор : 3
Формат : AC-3
Формат/Информация : Audio Coding 3
Расширение режима : CM (complete main)
Параметр Endianness формата : Big
Идентификатор кодека : A_AC3
Продолжительность : 1 ч. 33 м.
Вид битрейта : Постоянный
Битрейт : 448 Кбит/сек
Каналы : 6 каналов
Расположение каналов : Front: L C R, Side: L R, LFE
Частота : 48,0 КГц
Метод сжатия : С потерями
Размер потока : 299 Мбайт (14%)
Заголовок : Original | DD 5.1 @ 448 kbps
Язык : English
Default : Нет
Forced : Нет

Текст #1
Идентификатор : 4
Формат : UTF-8
Идентификатор кодека : S_TEXT/UTF8
Идентификатор кодека/Информация : UTF-8 Plain Text
Заголовок : Full
Язык : English
Default : Нет
Forced : Нет

Текст #2
Идентификатор : 5
Формат : UTF-8
Идентификатор кодека : S_TEXT/UTF8
Идентификатор кодека/Информация : UTF-8 Plain Text
Заголовок : SDH
Язык : English
Default : Нет
Forced : Нет

Меню
00:00:00.000 : :(01)00:00:00:000
00:05:31.997 : :(02)00:05:31:997
00:09:30.235 : :(03)00:09:30:235
00:15:37.352 : :(04)00:15:37:352
00:19:23.953 : :(05)00:19:23:953
00:23:38.375 : :(06)00:23:38:375
00:28:57.192 : :(07)00:28:57:192
00:34:14.969 : :(08)00:34:14:969
00:36:58.257 : :(09)00:36:58:257
00:40:25.672 : :(10)00:40:25:672
00:43:56.132 : :(11)00:43:56:132
00:48:47.632 : :(12)00:48:47:632
00:53:20.487 : :(13)00:53:20:487
00:59:39.117 : :(14)00:59:39:117
01:02:35.083 : :(15)01:02:35:083
01:07:20.161 : :(16)01:07:20:161
01:11:33.328 : :(17)01:11:33:329
01:16:26.997 : :(18)01:16:26:997
01:21:35.055 : :(19)01:21:35:055
01:26:54.332 : :(20)01:26:54:332
01:33:17.173 : :(21)01:33:17:173

piratbit.cc



Скачать Лес призраков через торрент http://i77.fastpic.ru/big/2016/0410/9e/1b5d2c718242e5dc324d064618a7f79e.png Скачать фильм Лес призраков через торрент бесплантно в хорошем качестве Описание: Юная американка Сара отправляется на поиски сестры-близняшки, которая таинственным образом исчезла на японском острове Хонсю. ... 8.9 10 7
Info! Золотая раздача, скачанное не засчитывается.
Торрент: Зарегистрирован [2016-04-10 09:11] · скачан: 407 раз
Статус: √ проверено
Размер: 2.14 GB
Как cкачать? Как скачать Лес призраков через торрент | qTorrent

% Раздел Тема Автор DL S | L
Фильмы 2016 [DVDrip, WEB-DLRip, HDrip] (DUB, MVO) [ 1.42 GB ] Лес призраков / The Forest [2016 BDRip ] Twi7ter Скачать
1 | 0
Фильмы [HD 720p, 1080p] (Хороший звук DUB, MVO) [ 5.24 GB ] Лес призраков / The Forest [2016 BDRip 720p] $-DRON-$ Скачать
1 | 0
Фильмы 2016 [DVDrip, WEB-DLRip, HDrip] (DUB, MVO) [ 745 MB ] Лес призраков / The Forest [2016 HDRip-AVC hkets1980 Скачать
1 | 0
Фильмы 2016 [DVDrip, WEB-DLRip, HDrip] (DUB, MVO) [ 1.45 GB ] Лес призраков / The Forest [2016 / AI-Film Lava Bear Films BDRip-AVC] potroks Скачать
1 | 0
T Фильмы [HD 720p, 1080p] (Хороший звук DUB, MVO) [ 7.9 GB ] Лес призраков / The Forest [2016 BDRip 1080p / ] Ворон Скачать
1 | 0


>> Регистрируемся здесь <<






Отзывы и комментарии о схеме читаем и пишем здесь: ---> Отзывы и комментарии о схеме

Новые благодарочки в телеграм довольных пользователей:
скриншот   скриншот   скриншот   скриншот   скриншот
    Дорогой пользователь! Огромная просьба, поблагодарите релизера, оцените раздачу и оставьте свои комментарий, если Вы скачали Лес призраков через торрент бесплатно! Внесите свою лепту в развитие PiratBit!
    Комментировать посты могут только пользователи прошедшие не сложную регистрацию
    Показать сообщения:    

    Лес призраков через торрент
    Скачать бесплатно Лес призраков
    Лес призраков скачать торрент
    Лес призраков смотреть онлайн
    Cкачать фильм Лес призраков бесплатно
    Лес призраков скачать торрент в хорошем качестве
    Лес призраков смотреть онлайн бесплатно в хорошем качестве


    Вы не можете начинать темы
    Вы не можете отвечать на сообщения
    Вы не можете редактировать свои сообщения
    Вы не можете удалять свои сообщения
    Вы не можете голосовать в опросах
    Вы не можете прикреплять файлы к сообщениям
    Вы можете скачивать файлы