iTunes

1+1

iTunes

мы

iTunes

1

iTunes

Чернобыль

1 сезон

Ральф против интернета

Лицензия

ПШазам

Лицензия

Игра престолов

Лицензия

30
pack

ВАЖНО

!!Акция!!

Alien_RageХит недели

RePack

Resident Evil 21

ИГРА 18+

pack

RePack

Metro:Exodus

!!Акция!!

Alien_Rage

RePack

fifa19

RePack

Assassins Creed: Odyssey

RePack

NEED FOR SPEED™ PAYBACK

3 сезон

9 сезон

Бесстыжие 9 сезон

Все сериалы

все сериалы на PB.wtf

RePack

FAR CRY 5
Ребята, катастрофически не хватает 7730р. для оплаты серверов за ИЮЛЬ (всвязи с блокировками трафик упал в 3 раза), 1-2р., выручайте.
  

В Париж! (Сергей Крутин) [2008, драма, DVDRip] piratbit.cc

В Париж! через торрент piratbit.cc

Размер: 2.05 GB | Добавлен: 3 года 4 мес. назад | Торрент скачан:23 раза
Скачать  

12-04-2016 13:21 В Париж! Скачать торрент  

В Париж!«Когда одна ошибка ломает жизнь»

  • Год выхода: 2008
  • Жанр: драма

  • Страна: Россия
  • Продолжительность: 02:04:05
  • Перевод: Не требуется
  • Режиссер: Сергей Крутин
  • В ролях:

    Юрий Степанов (Иван Николаевич Новожёнов), Ярослав Жалнин (Лешка, сын Ивана), Валерия Ходос (Наташа), Полина Кутепова (Маша), Георгий Дрозд (полковник милиции), Сергей Радченко (капитан милиции), Евгений Шах (майор милиции), Анатолий Зиновенко (друг Ивана), Евгений Ефремов (Вова Кислый), Сергей Сипливый (парторг), Нина Шаролапова (продавщица ограбленного магазина), Павел Алдошин


  • Действие фильма происходит в 60-е годы прошлого века, в заштатном провинциальном городке. Иван - передовик, токарь на заводе, один растит сына Лешку. В семье возникают проблемы: у любимой женщины Ивана огромная недостача, ей грозит тюрьма. А Лешку, на глазах любимой девушки, унизили хулиганы. Батя находит нестандартный выход из этих ситуаций: он сам делает пистолет (чтобы Лешка отомстил хулиганам), потом вместе с сыном идет грабить кафе, чтобы помочь Маше покрыть недостачу. Постепенно Лешка входит во вкус, ему нравится Влacть над людьми, он совершает первое убийство. Вдруг Иван понимает, что он своими руками вырастил убийцу...

  • Качество: DVDRip
  • Формат: AVI
  • Видео кодек: XviD
  • Аудио кодек: AC3
  • Видео: XviD, 704x400 (16:9), 1969 kbps, 25 fps, 0,280 bpp
  • Аудио: AC3 / 2.0 / 48 kHz / 384 kbps / 16 bit

    Код:

    General
    Complete name                            : H:\V.Parizh.2009.XviD.DVDRip.avi
    Format                                   : AVI
    Format/Info                              : Audio Video Interleave
    Format profile                           : OpenDML
    File size                                : 2.05 GiB
    Duration                                 : 2h 4mn
    Overall bit rate                         : 2 367 Kbps
    Writing application                      : VirtualDubMod 1.5.10.2 (build 2540/release)
    Writing library                          : VirtualDubMod build 2540/release

    Video
    ID                                       : 0
    Format                                   : MPEG-4 Visual
    Format profile                           : Advanced Simple@L5
    Format settings, BVOP                    : 1
    Format settings, QPel                    : No
    Format settings, GMC                     : No warppoints
    Format settings, Matrix                  : Default (MPEG)
    Codec ID                                 : XVID
    Codec ID/Hint                            : XviD
    Duration                                 : 2h 4mn
    Bit rate                                 : 1 970 Kbps
    Width                                    : 704 pixels
    Height                                   : 400 pixels
    Display aspect ratio                     : 16:9
    Frame rate                               : 25.000 fps
    Color space                              : YUV
    Chroma subsampling                       : 4:2:0
    Bit depth                                : 8 bits
    Scan type                                : Progressive
    Compression mode                         : Lossy
    Bits/(Pixel*Frame)                       : 0.280
    Stream size                              : 1.71 GiB (83%)
    Writing library                          : XviD 1.2.0.dev47 (UTC 2006-11-01)

    Audio
    ID                                       : 1
    Format                                   : AC-3
    Format/Info                              : Audio Coding 3
    Mode extension                           : CM (complete main)
    Codec ID                                 : 2000
    Duration                                 : 2h 4mn
    Bit rate mode                            : Constant
    Bit rate                                 : 384 Kbps
    Channel(s)                               : 2 channels
    Channel positions                        : Front: L R
    Sampling rate                            : 48.0 KHz
    Bit depth                                : 16 bits
    Compression mode                         : Lossy
    Stream size                              : 341 MiB (16%)
    Alignment                                : Split accross interleaves
    Interleave, duration                     : 40 ms (1.00 video frame)
    Interleave, preload duration             : 500 ms

    Скриншоты:


    © Оформление by -Lexx- piratbit.cc



  • Скачать В Париж! через торрент http://pic.kartinco.top/images/6/stazu.jpg Скачать фильм В Париж! через торрент бесплантно в хорошем качестве qw.png Действие фильма происходит в 60-е годы прошлого века, в заштатном провинциальном городке. Иван - передовик, токарь на заводе, один ... 10 10 1
    Торрент: Зарегистрирован [2016-04-12 13:21] · скачан: 23 раз
    Статус: √ проверено
    Размер: 2.05 GB
    Как cкачать? Как скачать В Париж! через торрент | qTorrent

    % Раздел Тема Автор DL S | L
    Классические порно фильмы [ 664 MB ] Последняя румба в Париже / Last Rumba In Paris [1989 Feature Gonzo Big Boobs DVDRip] Скорпион1976 Скачать
    3 | 0
    Детективы, Боевики, Триллеры [ 145 MB ] Джеймс Хедли Чейз - Весна в Париже [Сергей Горбунов Евгений Терновский 2018 56 kbps MP3] oleg8 Скачать
    1 | 0
    Наши фильмы, до 2010 [ 1.45 GB ] Окно в Париж [1993 DVDRip] olegus16 Скачать
    1 | 0
    Гонзо [ 1.37 GB ] ПРИКЛЮЧЕНИЯ ИНДИАНКИ В ПАРИЖЕ / LES AVENTURES D'UNE INDIENNE À PARIS [2018 Gonzo Anal Oral Threesome Lesbians Sex Toys Play WEBRip Оригинальный] DJASFUL Скачать
    1 | 0
    Фильмы [HD 720p, 1080p] (Хороший звук DUB, MVO) [ 3.62 GB ] Американский оборотень в Париже / An American Werewolf in Paris [1997 BDRip 1080p HEVC] 3хDVO 3хAVO VO ADVOKAT69 Скачать
    1 | 0
    Фильмы [HD 720p, 1080p] (Хороший звук DUB, MVO) [ 7.3 GB ] Последнее танго в Париже / Ultimo tango a Parigi [1972 BDRip 720p by msltel] DUB 4 x MVO 3 x DVO 2 x AVO msltel Скачать
    2 | 0
    Фильмы [HD 720p, 1080p] (Хороший звук DUB, MVO) [ 18.6 GB ] Последнее танго в Париже / Ultimo tango a Parigi [1972 BDRip 1080p by msltel] DUB 4 x MVO 3 x DVO 2 x AVO msltel Скачать
    1 | 0


    >> Регистрируемся здесь <<






    Отзывы и комментарии о схеме читаем и пишем здесь: ---> Отзывы и комментарии о схеме

    Новые благодарочки в телеграм довольных пользователей:
    скриншот   скриншот   скриншот   скриншот   скриншот
      Дорогой пользователь! Огромная просьба, поблагодарите релизера, оцените раздачу и оставьте свои комментарий, если Вы скачали В Париж! через торрент бесплатно! Внесите свою лепту в развитие PiratBit!
      Комментировать посты могут только пользователи прошедшие не сложную регистрацию
      Показать сообщения:    

      В Париж! через торрент
      Скачать бесплатно В Париж!
      В Париж! скачать торрент
      В Париж! смотреть онлайн
      Cкачать фильм В Париж! бесплатно
      В Париж! скачать торрент в хорошем качестве
      В Париж! смотреть онлайн бесплатно в хорошем качестве


      Вы не можете начинать темы
      Вы не можете отвечать на сообщения
      Вы не можете редактировать свои сообщения
      Вы не можете удалять свои сообщения
      Вы не можете голосовать в опросах
      Вы не можете прикреплять файлы к сообщениям
      Вы можете скачивать файлы