Лицензия

30

iTunes

мы

iTunes

1

1 сезон

Чернобыль

1 сезон

Ральф против интернета

MVO

Покемон. Детектив Пикачу

8 сезон

Игра престолов

iTunes

1+1

ИГРА 18+

pack

ВАЖНО

!!Акция!!

Alien_RageХит недели

RePack

Resident Evil 21
pack

RePack

Metro:Exodus

!!Акция!!

Alien_Rage

RePack

fifa19

RePack

Assassins Creed: Odyssey

RePack

NEED FOR SPEED™ PAYBACK

3 сезон

9 сезон

Бесстыжие 9 сезон

Все сериалы

все сериалы на PB.wtf

RePack

FAR CRY 5
Ребята, катастрофически не хватает 2730р. для оплаты серверов за МАЙ (всвязи с блокировками трафик упал в 3 раза), 1-2р., выручайте.
  

Сезонники / Temps (Райан Сэйдж) [2016, мелодрама, комедия, WEB-DLRip-AVC, Любительский (многоголосый)(RecentFilms) piratbit.cc

Сезонники через торрент piratbit.cc

Раздают: 1 [ 0 KB/s ]
Размер: 1.38 GB | Добавлен: 3 года 2 мес. назад | Торрент скачан:246 раз
Скачать  

15-04-2016 11:11 Сезонники Скачать торрент  


Сезонники / Temps


ИНФОРМАЦИЯ:
Год выпуска:2016
Страна: США
Жанр: мелодрама, комедия
Продолжительность: 01:25:30
Перевод: Любительский (многоголосый) (RecentFilms)
Субтитры: английские,
Режиссер: Райан Сэйдж

В Ролях:


Грант Розенмейер (Jefferson), Линдси Шоу (Stephanie), Рейд Юинг (Curtis), Иден Шер (Amy), Кристофер Бауэр (Mike), Алекса Гьюффре (Lorelei), Дэвид Карзелл (Josh), Коринн Чуи (Ms. Hwang), Селия Финкельштейн (Glenda), Clayton Froning (Todd Parker), Ди Фриман (Shandra), Эвиталь Эш (Gloria)

Описание:
Сюжет романтической, комедийной мелодрамы "Temps" основан на истории тихого, приятного молодого человека, работающего помощником в офисе, не стремящегося к карьерному росту и высокому заработку, благодаря чему у него складываются хорошие взаимоотношения к окружающими. Знакомство с новой сотрудницей изменяет его отношение к себе и коллегам, амбициозная, серьезно настроенная Стефани энергично пробивающаяся по служебной лестнице сводит паря с ума, заставляя пересмотреть приоритеты и заняться собственным развитием.

  • Мировая премьера:5 апреля 2016

    ТЕХ.ДАННЫЕ:
    Качество: WEB-DLRip-AVC
    Формат: MKV
    Видео: AVC, 1024x434 (2.35:1), 1930 kbps, 23,976 fps, 0,181 bpp
    Аудио №1: русский / AC3 / 2.0 / 48 kHz / 192 kbps / 16 bit ||
    Аудио №2: английский / MP3 / 2.0 / 48 kHz / 192 kbps /


    General
    Unique ID : 212871781843301703877222420096986854505 (0xA0259D2855ACC72FBFAFD19AA7C33469)
    Complete name : D:\Торент\Temps.2016.L.WEB-DLRip.(AVC).mkv
    Format : Matroska
    Format version : Version 4 / Version 2
    File size : 1.38 GiB
    Duration : 1h 25mn
    Overall bit rate : 2 310 Kbps
    Encoded date : UTC 2016-04-14 19:07:28
    Writing application : mkvmerge v8.3.0 ('Over the Horizon') 64bit
    Writing library : libebml v1.3.1 + libmatroska v1.4.2

    Video
    ID : 1
    Format : AVC
    Format/Info : Advanced Video Codec
    Format profile : High@L4.1
    Format settings, CABAC : Yes
    Format settings, ReFrames : 10 frames
    Codec ID : V_MPEG4/ISO/AVC
    Duration : 1h 25mn
    Bit rate : 1 930 Kbps
    Width : 1 024 pixels
    Height : 434 pixels
    Display aspect ratio : 2.35:1
    Frame rate mode : Variable
    Frame rate : 23.976 fps
    Standard : Component
    Color space : YUV
    Chroma subsampling : 4:2:0
    Bit depth : 8 bits
    Scan type : Progressive
    Bits/(Pixel*Frame) : 0.181
    Stream size : 1.12 GiB (81%)
    Writing library : x264 core 144 r2525
    Encoding settings : cabac=1 / ref=10 / deblock=1:-2:-2 / analyse=0x3:0x112 / me=umh / subme=9 / psy=1 / psy_rd=1.00:1.00 / mixed_ref=0 / me_range=16 / chroma_me=1 / trellis=1 / 8x8dct=1 / cqm=0 / deadzone=21,11 / fast_pskip=1 / chroma_qp_offset=-4 / threads=6 / lookahead_threads=1 / sliced_threads=0 / nr=0 / decimate=1 / interlaced=0 / bluray_compat=0 / constrained_intra=0 / bframes=10 / b_pyramid=2 / b_adapt=2 / b_bias=6 / direct=3 / weightb=0 / open_gop=0 / weightp=1 / keyint=239 / keyint_min=23 / scenecut=49 / intra_refresh=0 / rc_lookahead=40 / rc=2pass / mbtree=1 / bitrate=1930 / ratetol=1.0 / qcomp=0.80 / qpmin=4 / qpmax=69 / qpstep=10 / cplxblur=20.0 / qblur=0.5 / vbv_maxrate=4200 / vbv_bufsize=3500 / nal_hrd=none / filler=0 / ip_ratio=1.00 / aq=3:1.00
    Default : Yes
    Forced : No

    Audio #1
    ID : 2
    Format : AC-3
    Format/Info : Audio Coding 3
    Mode extension : CM (complete main)
    Codec ID : A_AC3
    Duration : 1h 25mn
    Bit rate mode : Constant
    Bit rate : 192 Kbps
    Channel(s) : 2 channels
    Channel positions : Front: L R
    Sampling rate : 48.0 KHz
    Bit depth : 16 bits
    Compression mode : Lossy
    Delay relative to video : -125ms
    Stream size : 117 MiB (8%)
    Language : Russian
    Default : Yes
    Forced : No

    Audio #2
    ID : 3
    Format : MPEG Audio
    Format version : Version 1
    Format profile : Layer 3
    Mode : Joint stereo
    Mode extension : MS Stereo
    Codec ID : A_MPEG/L3
    Codec ID/Hint : MP3
    Duration : 1h 25mn
    Bit rate mode : Constant
    Bit rate : 192 Kbps
    Channel(s) : 2 channels
    Sampling rate : 48.0 KHz
    Compression mode : Lossy
    Delay relative to video : -125ms
    Stream size : 117 MiB (8%)
    Writing library : LAME3.99.5
    Language : English
    Default : No
    Forced : No

    Text
    ID : 4
    Format : UTF-8
    Codec ID : S_TEXT/UTF8
    Codec ID/Info : UTF-8 Plain Text
    Language : English
    Default : No
    Forced : No
    Скриншоты:

    © Оформление by .::Ворон::.
    piratbit.cc
    !Ворон писал(а):

    Без рекламы!



  • Скачать Сезонники через торрент http://pic.kartinco.top/images/6/ordi9.jpg Скачать фильм Сезонники через торрент бесплантно в хорошем качестве Описание: Сюжет романтической, комедийной мелодрамы "Temps" основан на истории тихого, приятного молодого человека, работающего помощником ... 7.4 10 5
    Торрент: Зарегистрирован [2016-04-15 11:11] · скачан: 246 раз
    Статус: T временная
    Размер: 1.38 GB
    Как cкачать? Как скачать Сезонники через торрент | qTorrent

    % Раздел Тема Автор DL S | L
    T Фильмы (WEB-DL 720p, 1080p) [ 2.1 GB ] Сезонники / Temps [2016 WEB-DL 720p] MVO smaster Скачать
    1 | 0
    T Фильмы (WEB-DL 720p, 1080p) [ 2.73 GB ] Сезонники / Temps [2016 WEB-DL 1080p] Любительский [RecentFilms] -Lexx- Скачать
    1 | 0


    >> Регистрируемся здесь <<






    Отзывы и комментарии о схеме читаем и пишем здесь: ---> Отзывы и комментарии о схеме

    Новые благодарочки в телеграм довольных пользователей:
    скриншот   скриншот   скриншот   скриншот   скриншот
      Дорогой пользователь! Огромная просьба, поблагодарите релизера, оцените раздачу и оставьте свои комментарий, если Вы скачали Сезонники через торрент бесплатно! Внесите свою лепту в развитие PiratBit!
      Комментировать посты могут только пользователи прошедшие не сложную регистрацию
      Показать сообщения:    

      Сезонники через торрент
      Скачать бесплатно Сезонники
      Сезонники скачать торрент
      Сезонники смотреть онлайн
      Cкачать фильм Сезонники бесплатно
      Сезонники скачать торрент в хорошем качестве
      Сезонники смотреть онлайн бесплатно в хорошем качестве


      Вы не можете начинать темы
      Вы не можете отвечать на сообщения
      Вы не можете редактировать свои сообщения
      Вы не можете удалять свои сообщения
      Вы не можете голосовать в опросах
      Вы не можете прикреплять файлы к сообщениям
      Вы можете скачивать файлы