iTunes

1+1

iTunes

мы

iTunes

1

iTunes

Чернобыль

iTunes

Ральф против интернета

Лицензия

ПШазам

Лицензия

Игра престолов

Лицензия

30
pack

ВАЖНО

!!Акция!!

Alien_RageХит недели

RePack

Resident Evil 21

ИГРА 18+

pack

RePack

Metro:Exodus

!!Акция!!

Alien_Rage

RePack

fifa19

RePack

Assassins Creed: Odyssey

RePack

NEED FOR SPEED™ PAYBACK

3 сезон

9 сезон

Бесстыжие 9 сезон

Все сериалы

все сериалы на PB.wtf

RePack

FAR CRY 5
Ребята, катастрофически не хватает 7730р. для оплаты серверов за АВГУСТ (всвязи с блокировками трафик упал в 3 раза), 1-2р., выручайте.
  

Джейн берет ружье / Jane Got a Gun (Гэвин О’Коннор) [2016 г., боевик, драма, вестерн, HDRip, Дубляж "BD RUS"] piratbit.cc

Джейн берет ружье через торрент piratbit.cc

Размер: 744 MB | Добавлен: 3 года 4 мес. назад | Торрент скачан:69 раз
Скачать  

22-04-2016 18:13 Джейн берет ружье Скачать торрент  

Джейн берет ружье / Jane Got a Gun
Год выпуска: 2016
Страна: США / 1821 Pictures, Boies / Schiller Film Group, Handsomecharlie Films
Жанр: боевик, драма, вестерн
Продолжительность: 01:34:03
Перевод: Дубляж (BD RUS)

Режиссер: Гэвин О’Коннор

IMDB 5.70 (4358)


В ролях: Натали Портман, Джоэл Эдгертон, Юэн МакГрегор, Ноа Эммерик, Бойд Холбрук, Родриго Санторо, Джеймс Барнетт, Сэм Куинн, Maisie McMaster, Дженни Гэбриэлль

Описание: Головорезы МакКэна преследуют попытавшегося отбиться от банды Хэма. Изрешеченный пулями, он укрывается на ранчо своей красавицы-жены Джейн. Ей приходится обратиться за защитой к тому, кого она хотела бы видеть меньше всего, — к своему бывшему любовнику. Джейн нужно забыть прошлое, совладать с чувствами и стать сильной и бескомпромиссной, чтобы спасти семью от расправы банды наемников.

Качество: HDRip
Формат: AVI
Видео кодек: XviD
Аудио кодек: MP3
Видео: MPEG4, XviD, 640x272 (2.35:1), 25.000 fps, 968 Kbps (0.223 bit/pixel)
Аудио: MP3, 48.0 KHz, 2 ch, 128 Kbps, CBR
скриншот   скриншот   скриншот   скриншот   скриншот   скриншот  

Общее
Полное имя : F:\кино\Джейн берет ружье.2016.D.HDRip.avi
Формат : AVI
Формат/Информация : Audio Video Interleave
Размер файла : 744 Мбайт
Продолжительность : 1 ч. 34 м.
Общий поток : 1106 Кбит/сек
Программа кодирования : VirtualDubMod 1.5.10.3 | www.virtualdub-fr.org || (build 2550/release)
Библиотека кодирования : VirtualDubMod build 2550/release

Видео
Идентификатор : 0
Формат : MPEG-4 Visual
Профиль формата : Advanced Simple@L5
Параметр BVOP формата : 2
Параметр QPel формата : Нет
Параметр GMC формата : Без точки перехода
Параметр матрицы формата : Default (MPEG)
Идентификатор кодека : XVID
Идентификатор кодека/Подсказка : XviD
Продолжительность : 1 ч. 34 м.
Битрейт : 968 Кбит/сек
Ширина : 640 пикселей
Высота : 272 пикселя
Соотношение сторон : 2,35:1
Частота кадров : 25,000 кадров/сек
Цветовое пространство : YUV
Субдискретизация насыщенности : 4:2:0
Битовая глубина : 8 бит
Тип развёртки : Прогрессивная
Метод сжатия : С потерями
Бит/(Пиксели*Кадры) : 0.223
Размер потока : 651 Мбайт (88%)
Библиотека кодирования : XviD 1.2.1 (UTC 2008-12-04)

Аудио
Идентификатор : 1
Формат : MPEG Audio
Версия формата : Version 1
Профиль формата : Layer 3
Идентификатор кодека : 55
Идентификатор кодека/Подсказка : MP3
Продолжительность : 1 ч. 34 м.
Вид битрейта : Постоянный
Битрейт : 128 Кбит/сек
Каналы : 2 канала
Частота : 48,0 КГц
Метод сжатия : С потерями
Размер потока : 86,1 Мбайт (12%)
Выравнивание : Соединение по промежуткам
Продолжительность промежутка : 40 мс. (1,00 видеокадр)
Время предзагрузки промежутка : 504 мс.
Библиотека кодирования : LAME3.99r
Настройки программы : -m s -V 4 -q 2 -lowpass 17 -b 128

piratbit.cc



Скачать Джейн берет ружье через торрент http://pic.kartinco.top/images/11/n6md2.jpg Скачать фильм Джейн берет ружье через торрент бесплантно в хорошем качестве Описание: Головорезы МакКэна преследуют попытавшегося отбиться от банды Хэма. Изрешеченный пулями, он укрывается на ранчо своей ... 9 10 2
Торрент: Зарегистрирован [2016-04-22 18:13] · скачан: 69 раз
Статус: √ проверено
Размер: 744 MB
Как cкачать? Как скачать Джейн берет ружье через торрент | qTorrent

% Раздел Тема Автор DL S | L
Фильмы (DVD фильмы) [ 5.21 GB ] Джейн берет ружье / Jane Got a Gun [2016 DVD9] R5 voovaz Скачать
1 | 0
Фильмы 2016 [DVDrip, WEB-DLRip, HDrip] (DUB, MVO) [ 747 MB ] Джейн берет ружье / Jane Got a Gun [2016 HDRip-AVC] () hkets1980 Скачать
1 | 0
R.G. Resident & PiratVoice - Фильмы, Видео [ 1.88 GB ] Джейн берет ружье / Jane Got a Gun [2016 BDRip-AVC] DUB R.G.Resident schultz Скачать
1 | 0
R.G. Resident & PiratVoice - Фильмы, Видео [ 1.46 GB ] Джейн берет ружье / Jane Got a Gun [2016 HDRip-AVC] DUB ] White Smoke Скачать
1 | 0
Фильмы 2016 [DVDrip, WEB-DLRip, HDrip] (DUB, MVO) [ 2.18 GB ] Джейн берет ружье / Jane Got a Gun [2016 BDRip-AVC] DUB potroks Скачать
2 | 0
Фильмы (Blu-ray, BD-Remux, HDDVD) [ 16.78 GB ] Джейн берет ружье / Jane Got a Gun [2016 Blu-Ray] Rus Transfer / [] Russian Mafia Скачать
1 | 0
Фильмы 2016 [DVDrip, WEB-DLRip, HDrip] (DUB, MVO) [ 1.46 GB ] Джейн берет ружье / Jane Got a Gun [2016 BDRip-AVC] DUB potroks Скачать
1 | 0


>> Регистрируемся здесь <<






Отзывы и комментарии о схеме читаем и пишем здесь: ---> Отзывы и комментарии о схеме

Новые благодарочки в телеграм довольных пользователей:
скриншот   скриншот   скриншот   скриншот   скриншот
    Дорогой пользователь! Огромная просьба, поблагодарите релизера, оцените раздачу и оставьте свои комментарий, если Вы скачали Джейн берет ружье через торрент бесплатно! Внесите свою лепту в развитие PiratBit!
    Комментировать посты могут только пользователи прошедшие не сложную регистрацию
    Показать сообщения:    

    Джейн берет ружье через торрент
    Скачать бесплатно Джейн берет ружье
    Джейн берет ружье скачать торрент
    Джейн берет ружье смотреть онлайн
    Cкачать фильм Джейн берет ружье бесплатно
    Джейн берет ружье скачать торрент в хорошем качестве
    Джейн берет ружье смотреть онлайн бесплатно в хорошем качестве


    Вы не можете начинать темы
    Вы не можете отвечать на сообщения
    Вы не можете редактировать свои сообщения
    Вы не можете удалять свои сообщения
    Вы не можете голосовать в опросах
    Вы не можете прикреплять файлы к сообщениям
    Вы можете скачивать файлы