iTunes

1+1

iTunes

мы

iTunes

1

iTunes

Чернобыль

iTunes

Ральф против интернета

Лицензия

ПШазам

Лицензия

Игра престолов

Лицензия

30
pack

ВАЖНО

!!Акция!!

Alien_RageХит недели

RePack

Resident Evil 21

ИГРА 18+

pack

RePack

Metro:Exodus

!!Акция!!

Alien_Rage

RePack

fifa19

RePack

Assassins Creed: Odyssey

RePack

NEED FOR SPEED™ PAYBACK

3 сезон

9 сезон

Бесстыжие 9 сезон

Все сериалы

все сериалы на PB.wtf

RePack

FAR CRY 5
Ребята, катастрофически не хватает 7730р. для оплаты серверов за АВГУСТ (всвязи с блокировками трафик упал в 3 раза), 1-2р., выручайте.
  

Дэдпул / Deadpool (Тим Миллер) [2016, фантастика, боевик, комедия, WEB-DLRip, Дубляж] iTunes piratbit.cc

Дэдпул через торрент piratbit.cc

Размер: 746 MB | Добавлен: 3 года 4 мес. назад | Торрент скачан:1 раз
Скачать  

26-04-2016 08:55 Дэдпул Скачать торрент  

«Дерзкий как пуля резкий»
Год выпуска » 2016
Страна » США, Канада
Жанр » Криминал, драма, триллер
Продолжительность » 01:48:00
Перевод » Дубляж - [Лицензия / iTunes]
Субтитры » Отсутствуют

В ролях
»Райан Рейнольдс / Ryan Reynolds (Wade / Deadpool), Морена Баккарин / Morena Baccarin (Vanessa), Эд Скрейн / Ed Skrein (Ajax), ТиДжей Миллер / T.J. Miller (Weasel), Джина Карано / Gina Carano (Angel Dust), Брианна Хилдебранд / Brianna Hildebrand (Negasonic Teenage Warhead), Стефан Капичич / Stefan Kapicic (Colossus, озвучка), Лесли Уггэмс / Leslie Uggams (Blind Al)


Режиссёр
» Джон Хиллкоут

» Уэйд Уилсон - наёмник. Будучи побочным продуктом программы вооружённых сил под названием «Оружие X», Уилсон приобрёл невероятную силу, проворство и способность к исцелению. Но страшной ценой: его клеточная структура постоянно меняется, а здравомыслие сомнительно. Всё, чего Уилсон хочет, - это держаться на плаву в социальной выгребной яме. Но течение в ней слишком быстрое.

• Качество » WEB-DLRip
• Формат » AVI
• Видео кодек » Xvid
• Аудио кодек » MP3
• Видео »688x288, 23.976 fps, 821 kbps
• Аудио » Русский (MP3 / 2 ch / 128 kbps / 48,0 КГц / 16 bit )




Бюджет: $58 000 000
Сборы в США: $340 941 383
Сборы в мире: + $389 708 747 = $754 452 848
Сборы в России: $24 267 261
Зрители: Россия 6.72 млн
Премьера (мир): 21 января 2016
Премьера (РФ): 11 февраля 2016
Рейтинг MPAA: Лицам до 17 лет обязательно присутствие взрослого
Общее
Полное имя : C:\Users\DRON & LeXuZ\Desktop\Deadpool.2016.WEB-DLRip.745MB.MegaPeer.avi
Формат : AVI
Формат/Информация : Audio Video Interleave
Размер файла : 746 Мбайт
Продолжительность : 1 ч. 48 м.
Общий поток : 959 Кбит/сек
Программа кодирования : VirtualDubMod 1.5.10.3 | www.virtualdub-fr.org || (build 2550/release)
Библиотека кодирования : VirtualDubMod build 2550/release

Видео
Идентификатор : 0
Формат : MPEG-4 Visual
Профиль формата : Advanced Simple@L5
Параметр BVOP формата : 1
Параметр QPel формата : Нет
Параметр GMC формата : Без точки перехода
Параметр матрицы формата : Выборочная
Идентификатор кодека : XVID
Идентификатор кодека/Подсказка : XviD
Продолжительность : 1 ч. 48 м.
Битрейт : 822 Кбит/сек
Ширина : 688 пикселей
Высота : 288 пикселей
Соотношение сторон : 2,40:1
Частота кадров : 23,976 кадра/сек
Цветовое пространство : YUV
Субдискретизация насыщенности : 4:2:0
Битовая глубина : 8 бит
Тип развёртки : Прогрессивная
Метод сжатия : С потерями
Бит/(Пиксели*Кадры) : 0.173
Размер потока : 639 Мбайт (86%)
Библиотека кодирования : XviD 73

Аудио
Идентификатор : 1
Формат : MPEG Audio
Версия формата : Version 1
Профиль формата : Layer 3
Идентификатор кодека : 55
Идентификатор кодека/Подсказка : MP3
Продолжительность : 1 ч. 48 м.
Вид битрейта : Постоянный
Битрейт : 128 Кбит/сек
Каналы : 2 канала
Частота : 48,0 КГц
Метод сжатия : С потерями
Размер потока : 99,5 Мбайт (13%)
Выравнивание : Соединение по промежуткам
Продолжительность промежутка : 42 мс. (1,00 видеокадр)
Время предзагрузки промежутка : 504 мс.
Библиотека кодирования : LAME3.99r
Настройки программы : -m s -V 4 -q 2 -lowpass 17 -b 128
[/code]

скриншот   скриншот   скриншот   скриншот  
piratbit.cc



Скачать Дэдпул через торрент http://pic1.kartinco.top/images/10/3n4qv.jpg Скачать фильм Дэдпул через торрент бесплантно в хорошем качестве В ролях »Райан Рейнольдс / Ryan Reynolds (Wade / Deadpool), Морена Баккарин / Morena Baccarin (Vanessa), Эд Скрейн / Ed Skrein (Ajax), ... 7.8 10 4
Торрент: Зарегистрирован [2016-04-26 08:55] · скачан: 1 раз
Статус: √ проверено
Размер: 746 MB
Как cкачать? Как скачать Дэдпул через торрент | qTorrent

% Раздел Тема Автор DL S | L
Фильмы [HD 720p, 1080p] (Хороший звук DUB, MVO) [ 11.53 GB ] Жил-был Дэдпул / Once Upon A Deadpool [2018 BDRip 1080p] bober100 Скачать
4 | 0
Фильмы 2018 [DVDrip, WEB-DLRip, HDrip] (DUB, MVO) [ 2.13 GB ] Жил-был Дэдпул / Once Upon A Deadpool [2018 BDRip] bober100 Скачать
33 | 0
Фильмы 2018 [DVDrip, WEB-DLRip, HDrip] (DUB, MVO) [ 2.13 GB ] Жил-был Дэдпул / Once Upon A Deadpool [2018 BDRip] - Twi7ter Скачать
6 | 0
Фильмы 2018 [DVDrip, WEB-DLRip, HDrip] (DUB, MVO) [ 2.18 GB ] Жил-был Дэдпул / Once Upon A Deadpool [2018 BDRip-AVC] bober100 Скачать
1 | 0
Фильмы 2018 [DVDrip, WEB-DLRip, HDrip] (DUB, MVO) [ 1.46 GB ] Жил-был Дэдпул / Once Upon A Deadpool [2018 BDRip] - Twi7ter Скачать
4 | 0
Фильмы [HD 720p, 1080p] (Хороший звук DUB, MVO) [ 5.78 GB ] Жил-был Дэдпул / Once Upon A Deadpool [2018 BDRip 720p] bober100 Скачать
3 | 0
Фильмы 2018 [DVDrip, WEB-DLRip, HDrip] (DUB, MVO) [ 1.41 GB ] Жил-был Дэдпул / Once Upon A Deadpool [2018 BDRip] bober100 Скачать
2 | 0


>> Регистрируемся здесь <<






Отзывы и комментарии о схеме читаем и пишем здесь: ---> Отзывы и комментарии о схеме

Новые благодарочки в телеграм довольных пользователей:
скриншот   скриншот   скриншот   скриншот   скриншот
    Дорогой пользователь! Огромная просьба, поблагодарите релизера, оцените раздачу и оставьте свои комментарий, если Вы скачали Дэдпул через торрент бесплатно! Внесите свою лепту в развитие PiratBit!
    Комментировать посты могут только пользователи прошедшие не сложную регистрацию
    Показать сообщения:    

    Дэдпул через торрент
    Скачать бесплатно Дэдпул
    Дэдпул скачать торрент
    Дэдпул смотреть онлайн
    Cкачать фильм Дэдпул бесплатно
    Дэдпул скачать торрент в хорошем качестве
    Дэдпул смотреть онлайн бесплатно в хорошем качестве


    Вы не можете начинать темы
    Вы не можете отвечать на сообщения
    Вы не можете редактировать свои сообщения
    Вы не можете удалять свои сообщения
    Вы не можете голосовать в опросах
    Вы не можете прикреплять файлы к сообщениям
    Вы можете скачивать файлы