iTunes

1+1

iTunes

мы

iTunes

1

iTunes

Чернобыль

iTunes

Ральф против интернета

Лицензия

ПШазам

Лицензия

Игра престолов

Лицензия

30
pack

ВАЖНО

!!Акция!!

Alien_RageХит недели

RePack

Resident Evil 21

ИГРА 18+

pack

RePack

Metro:Exodus

!!Акция!!

Alien_Rage

RePack

fifa19

RePack

Assassins Creed: Odyssey

RePack

NEED FOR SPEED™ PAYBACK

3 сезон

9 сезон

Бесстыжие 9 сезон

Все сериалы

все сериалы на PB.wtf

RePack

FAR CRY 5
Ребята, катастрофически не хватает 7730р. для оплаты серверов за АВГУСТ (всвязи с блокировками трафик упал в 3 раза), 1-2р., выручайте.
  

Пандемия / Pandemic (Джон Суитц) [2016, Фантастика, боевик, триллер HDRip] MVO (Без рекламы ) piratbit.cc

Пандемия через торрент piratbit.cc

Размер: 1.37 GB | Добавлен: 3 года 4 мес. назад | Торрент скачан:640 раз
Скачать  

27-04-2016 07:19 Пандемия Скачать торрент  

Пандемия / Pandemic«Бойся мёртвых»
Год выпуска » 2016
Страна » США / New Artists Alliance, Parkside Pictures, Tadross Media Group
Жанр » Фантастика, боевик, триллер
Продолжительность » 01:32:27
Перевод » Любительский (многоголосый, закадровый) | ViruseProject
Субтитры » Отсутствуют

В ролях
»Рэйчел Николс, Мисси Пайл, Элфи Оуэн-Аллен, Мекхай Файфер, Пол Гилфойл, Даниэль Роуз Расселл, Джина Ли, Jonathan Buckhouse, Stephanie Langnas, Ниа Дюн


Режиссёр
» Джон Суитц

» На планете Земля зверствует страшный вирус, превращающий людей в безмозглых и агрессивных тварей. Доктор Лорен в составе небольшой группы направлена в центр города с заданием найти и спасти незаражённых выживших.

• Качество » HDRip
• Формат » AVI
• Видео кодек » Xvid
• Аудио кодек » АС3
• Видео »720x304, ~1 925 kbps avg, 23.976 fps
• Аудио » Русский (АС3 / 2 ch / 192 kbps / 48,0 КГц / 16 bit )


Премьера (мир): 26 февраля 2016
Общее
Полное имя : C:\Users\DRON & LeXuZ\Desktop\PanHdem1k.2016.P.HDRip.1400MB.avi
Формат : AVI
Формат/Информация : Audio Video Interleave
Размер файла : 1,37 Гбайт
Продолжительность : 1 ч. 32 м.
Общий поток : 2126 Кбит/сек
Программа кодирования : VirtualDubMod 1.5.10.2 (build 2540/release)
Библиотека кодирования : VirtualDubMod build 2540/release

Видео
Идентификатор : 0
Формат : MPEG-4 Visual
Профиль формата : Advanced Simple@L5
Параметр BVOP формата : 2
Параметр QPel формата : Нет
Параметр GMC формата : Без точки перехода
Параметр матрицы формата : Default (MPEG)
Идентификатор кодека : XVID
Идентификатор кодека/Подсказка : XviD
Продолжительность : 1 ч. 32 м.
Битрейт : 1925 Кбит/сек
Ширина : 720 пикселей
Высота : 304 пикселя
Соотношение сторон : 2,35:1
Частота кадров : 23,976 кадра/сек
Цветовое пространство : YUV
Субдискретизация насыщенности : 4:2:0
Битовая глубина : 8 бит
Тип развёртки : Прогрессивная
Метод сжатия : С потерями
Бит/(Пиксели*Кадры) : 0.367
Размер потока : 1,24 Гбайт (91%)
Библиотека кодирования : XviD 1.2.1 (UTC 2008-12-04)

Аудио
Идентификатор : 1
Формат : AC-3
Формат/Информация : Audio Coding 3
Расширение режима : CM (complete main)
Параметр Endianness формата : Big
Идентификатор кодека : 2000
Продолжительность : 1 ч. 32 м.
Вид битрейта : Постоянный
Битрейт : 192 Кбит/сек
Каналы : 2 канала
Расположение каналов : Front: L R
Частота : 48,0 КГц
Битовая глубина : 16 бит
Метод сжатия : С потерями
Задержка видео : 3 мс.
Размер потока : 126 Мбайт (9%)
Выравнивание : Разделение по промежуткам
Продолжительность промежутка : 42 мс. (1,00 видеокадр)
Время предзагрузки промежутка : 500 мс.
[/code]
скриншот   скриншот   скриншот  
piratbit.cc



Скачать Пандемия через торрент http://i74.fastpic.ru/big/2015/1218/b5/c39d072d168dbcde95d1a17f670689b5.gif Скачать фильм Пандемия через торрент бесплантно в хорошем качестве В ролях »Рэйчел Николс, Мисси Пайл, Элфи Оуэн-Аллен, Мекхай Файфер, Пол Гилфойл, Даниэль Роуз Расселл, Джина Ли, Jonathan Buckhouse, ... 8.9 10 26
Торрент: Зарегистрирован [2016-04-27 07:19] · скачан: 640 раз
Статус: T временная
Размер: 1.37 GB
Как cкачать? Как скачать Пандемия через торрент | qTorrent

% Раздел Тема Автор DL S | L
T Фильмы [HD 720p, 1080p] (Хороший звук DUB, MVO) [ 4.49 GB ] Пандемия / Pandemic [2016 BDRip 720p] MVO DINO-UFO Скачать
1 | 0
T Фильмы (WEB-DL 720p, 1080p) [ 2.68 GB ] Пандемия / Pandemic [2016 WEB-DL 720p] MVO [ViruseProject] -Lexx- Скачать
1 | 0
Фильмы 2006-2008 [ 1.37 GB ] Пандемия / Pandemic [2009 DVDRip] alexandr1974 Скачать
1 | 0


Последний раз редактировалось: $-DRON-$ (2016-04-27 09:07), всего редактировалось 1 раз


>> Регистрируемся здесь <<






Отзывы и комментарии о схеме читаем и пишем здесь: ---> Отзывы и комментарии о схеме

Новые благодарочки в телеграм довольных пользователей:
скриншот   скриншот   скриншот   скриншот   скриншот
    Дорогой пользователь! Огромная просьба, поблагодарите релизера, оцените раздачу и оставьте свои комментарий, если Вы скачали Пандемия через торрент бесплатно! Внесите свою лепту в развитие PiratBit!
    Комментировать посты могут только пользователи прошедшие не сложную регистрацию
    Показать сообщения:    

    Пандемия через торрент
    Скачать бесплатно Пандемия
    Пандемия скачать торрент
    Пандемия смотреть онлайн
    Cкачать фильм Пандемия бесплатно
    Пандемия скачать торрент в хорошем качестве
    Пандемия смотреть онлайн бесплатно в хорошем качестве


    Вы не можете начинать темы
    Вы не можете отвечать на сообщения
    Вы не можете редактировать свои сообщения
    Вы не можете удалять свои сообщения
    Вы не можете голосовать в опросах
    Вы не можете прикреплять файлы к сообщениям
    Вы можете скачивать файлы